Audio Silent for the first 0.41 Seconds (FujiFilm XT-4)

ZachAtk1 wrote on 4/18/2022, 6:08 PM

Every clip recorded on a FujiFilm XT-4 that I import into Vegas Pro has a 0.41 second audio delay at the start of each clip. I have been "getting by" with this issue by cropping the 0.41 seconds in front of the clip but there are videos where I need the full time. Any ideas? It renders out this way. The source media is fine when playing back in VLC player.

Example:

MediaInfo:

General
Complete name                            : V:\[_]PROJECTS\0138\Fuji\DSCF0865.MOV
Format                                   : MPEG-4
Format profile                           : QuickTime
Codec ID                                 : qt   0000.00 (qt  )
File size                                : 202 MiB
Duration                                 : 8 s 8 ms
Overall bit rate                         : 212 Mb/s
Movie_More                               : FUJIFILM DIGITAL CAMERA X-T4
Encoded date                             : UTC 2021-09-04 12:49:55
Tagged date                              : UTC 2021-09-04 12:49:55
Origin                                   : Digital Camera
free                                     : ‚ƒ„…†‡ˆ    ‰ / Š‹Œ / Ž‘’“”•–—˜™š›œžŸ  !¡"¢#£$¤%¥&¦'§(¨)©*ª+«,¬-­.®/¯0°1±2²3³4´5µ6¶7·8¸9¹:º;»<¼=½>¾?¿@ÀAÁ

Video
ID                                       : 1
Format                                   : HEVC
Format/Info                              : High Efficiency Video Coding
Format profile                           : Main 10@L5.2@High
Codec ID                                 : hvc1
Codec ID/Info                            : High Efficiency Video Coding
Duration                                 : 8 s 8 ms
Bit rate                                 : 204 Mb/s
Width                                    : 3 840 pixels
Height                                   : 2 160 pixels
Display aspect ratio                     : 16:9
Frame rate mode                          : Constant
Frame rate                               : 59.940 (60000/1001) FPS
Color space                              : YUV
Chroma subsampling                       : 4:2:0
Bit depth                                : 10 bits
Bits/(Pixel*Frame)                       : 0.411
Stream size                              : 195 MiB (96%)
Language                                 : English
Encoded date                             : UTC 2021-09-04 12:49:55
Tagged date                              : UTC 2021-09-04 12:49:55
Color range                              : Full
Color primaries                          : BT.709
Transfer characteristics                 : BT.601
Matrix coefficients                      : BT.601
Codec configuration box                  : hvcC

Audio
ID                                       : 2
Format                                   : PCM
Format settings                          : Little / Signed
Codec ID                                 : lpcm
Duration                                 : 8 s 8 ms
Bit rate mode                            : Constant
Bit rate                                 : 2 304 kb/s
Channel(s)                               : 2 channels
Channel layout                           : L R
Sampling rate                            : 48.0 kHz
Bit depth                                : 24 bits
Stream size                              : 2.20 MiB (1%)
Language                                 : English
Encoded date                             : UTC 2021-09-04 12:49:55
Tagged date                              : UTC 2021-09-04 12:49:55

Other
ID                                       : 3
Type                                     : Time code
Format                                   : QuickTime TC
Duration                                 : 8 s 8 ms
Bit rate mode                            : Constant
Frame rate                               : 59.940 (60000/1001) FPS
Time code of first frame                 : 07:28:20;01
Time code, striped                       : Yes
Language                                 : English
Encoded date                             : UTC 2021-09-04 12:49:55
Tagged date                              : UTC 2021-09-04 12:49:55

Thanks

Comments

john_dennis wrote on 4/18/2022, 8:03 PM

@ZachAtk1

Try converting the one file that you really, really need the first 0.41 sec of audio to Pro Res in the Shutter Encoder and report back.

My main system:
Motherboard: Asus X99-AII
CPU: Intel i7-6850K
GPU: Sapphire Radeon RX480-8GB
RAM: Corsair Dominator (4 x 4 GB) DDR4 2400
Disk O/S & Programs: Intel SSD 750 (400 GB)
Disk Active Projects: 1TB & 2TB WD BLACK SN750 NVMe Internal PCI Express 3.0 x4 Solid State Drives
Disk Other: WD Ultrastar/Hitachi Hard Drives: WDBBUR0080BNC-WRSN, HGST HUH728080ALE600, 724040ALE640, HDS3020BLA642
Case: LIAN LI PC-90 Black Aluminum ATX Full Tower Case
CPU cooling: Corsair Hydro series H115i
Power supply: SeaSonic SS-750KM3 750W 80 PLUS GOLD Certified Full Modular Active PFC Power Supply
Drive Bay: Kingwin KF-256-BK 2.5" and 3.5" Trayless Hot Swap Rack with USB 3
Sound card: Crystal Sound 3 on motherboard. Recording done on another system.
Primary Monitor: Asus ProArt PA248q (24" 1920 x 1200)
O/S: Windows 10 Pro 190943
Camera: Sony RX10 Model IV

https://www.youtube.com/user/thedennischannel