Crashing Upon Import

TheRetroReplay wrote on 1/19/2018, 12:58 PM

So I'm running Vegas Pro 14 Build 270 64-Bit and working on a project, I have 12 video files that I need to import and I got the first 10 imported with little issue (crashed a few times building peaks). But every single time I go to import one of the last 2 files, it crashes. I try a new project and go to import one of those 2 files, crashes. All 12 files are 1080p 60fps and are .ts files, I don't get why Vegas is doing it for the last 2 files when the first 10 went in just fine, I've changed nothing. Does it just not like those files? I try to drag and drop, the second that file touches Vegas, crash. I go to import, my mouse hovers over it, fine, once I click, crash. What is going on?

Comments

Leon-Zetekoff wrote on 5/2/2019, 10:33 AM

I'm having the same problem in vegas 12 and Vegas 15 (build 416). I'm importing a .TS file from my plex server and it crashes.

 

any updates on this?

thanks leon

Leon-Zetekoff wrote on 5/2/2019, 10:35 AM

Extra Information
   File:                C:\Users\leonz\AppData\Local\VEGAS Pro\15.0\dx_video_grovel_x64.log
   File:                C:\Users\leonz\AppData\Local\VEGAS Pro\15.0\svfx_video_grovel_x64.log
   File:                C:\Users\leonz\AppData\Local\VEGAS Pro\15.0\ocio_x64.log
   File:                C:\Users\leonz\AppData\Local\VEGAS Pro\15.0\dx_grovel_x64.log
   File:                C:\Users\leonz\AppData\Local\VEGAS Pro\15.0\gpu_video_x64.log

Problem Description
   Application Name:    VEGAS Pro
   Application Version: Version 15.0 (Build 416)
   Problem:             Unmanaged Exception (0xc0000005)
   Fault Module:        C:\multimedia\Sony\Vegas Pro 15.0\FileIO Plug-Ins\compoundplug\compoundplug.dll
   Fault Address:       0x00007FFD2FB2CFF9
   Fault Offset:        0x00000000000DCFF9

Fault Process Details
   Process Path:        C:\multimedia\Sony\Vegas Pro 15.0\vegas150.exe
   Process Version:     Version 15.0 (Build 416)
   Process Description: VEGAS Pro
   Process Image Date:  2018-11-20 (Tue Nov 20) 01:28:04

Eagle Six wrote on 5/2/2019, 10:44 AM

@Leon-Zetekoff have you thought about or considered using something like 'Video_TS to MP4' to convert your problem .ts files? Maybe you are already doing this as a work around.

System Specs......
Corsair Obsidian Series 450D ATX Mid Tower
Asus X99-A II LGA 2011-v3, Intel X99 SATA 6 Gb/s USB 3.1/3.0 ATX Intel Motherboard
Intel Core i7-6800K 15M Broadwell-E, 6 core 3.4 GHz LGA 2011-v3 (overclocked 20%)
64GB Corsair Vengeance LPX DDR4 3200
Corsair Hydro Series H110i GTX 280mm Extreme Performance Liquid CPU Cooler
MSI Radeon R9 390 DirectX 12 8GB Video Card
Corsair RMx Series RM750X 740W 80 Plus Gold power pack
Samsung 970 EVO NVMe M.2 boot drive
Corsair Neutron XT 2.5 480GB SATA III SSD - video work drive
Western Digitial 1TB 7200 RPM SATA - video work drive
Western Digital Black 6TB 7200 RPM SATA 6Bb/s 128MB Cache 3.5 data drive

Bluray Disc burner drive
2x 1080p monitors
Microsoft Window 10 Pro
DaVinci Resolve Studio 16 pb2
SVP13, MVP15, MVP16, SMSP13, MVMS15, MVMSP15, MVMSP16

j-v wrote on 5/2/2019, 11:11 AM

This is the error report and that says nothing about the info of your used files.
To get an idea about a possible reason we need the MediaInfo of those extra difficult files. See this faq:https://www.vegascreativesoftware.info/us/forum/faq-how-to-post-mediainfo-and-vegas-pro-file-properties--104561/

met vriendelijke groet
Jan

Camera : Pan X900, GoPro Hero7 Hero Black, Samsung Galaxy A8
Desktop :MB Gigabyte Z390M, W10, i7 7900 4.7Ghz,16 DDR4 GB RAM, Gef. GTX 1660 Ti.
Laptop  :Asus ROG GL753VD, W10 home, version 1903 build 18.362,295 CPU i7 7700HQ, 16 GB RAM, GeF. GTX 1050 (2 GB) + Int. HD Graphics 630(2GB).VP 15,16,17 and VMS PL 15,16 are installed
Both Nvidia GPU's have driver version 431.86 Studio Drivers
TV      :LG 4K 55EG960V

Dutch video tutorials for beginners

My slogan is: BE OR BECOME A STEMCELL DONOR !!!

Leon-Zetekoff wrote on 5/2/2019, 12:06 PM

Here's the info:

General
ID                                       : 1 (0x1)
Complete name                            : D:\multimedia\Video\69 News Berks Edition (1999) - 2019-04-30 17 30 00 - Episode 04-30.ts
Format                                   : MPEG-TS
File size                                : 2.62 GiB
Duration                                 : 31 min 47 s
Overall bit rate mode                    : Variable
Overall bit rate                         : 11.8 Mb/sVideo
ID                                       : 256 (0x100)
Menu ID                                  : 1 (0x1)
Format                                   : MPEG Video
Format version                           : Version 2
Format profile                           : Main@High
Format settings                          : CustomMatrix / BVOP
Format settings, BVOP                    : Yes
Format settings, Matrix                  : Custom
Format settings, GOP                     : Variable
Codec ID                                 : 2
Duration                                 : 31 min 48 s
Bit rate mode                            : Variable
Bit rate                                 : 10.9 Mb/s
Maximum bit rate                         : 25.0 Mb/s
Width                                    : 1 280 pixels
Height                                   : 720 pixels
Display aspect ratio                     : 16:9
Active Format Description                : Full frame 16:9 image
Frame rate                               : 59.940 (60000/1001) FPS
Color space                              : YUV
Chroma subsampling                       : 4:2:0
Bit depth                                : 8 bits
Scan type                                : Progressive
Compression mode                         : Lossy
Bits/(Pixel*Frame)                       : 0.198
Stream size                              : 2.43 GiB (93%)Audio #1
ID                                       : 257 (0x101)
Menu ID                                  : 1 (0x1)
Format                                   : AC-3
Format/Info                              : Audio Coding 3
Commercial name                          : Dolby Digital
Codec ID                                 : 129
Duration                                 : 31 min 58 s
Bit rate mode                            : Constant
Bit rate                                 : 192 kb/s
Channel(s)                               : 2 channels
Channel layout                           : L R
Sampling rate                            : 48.0 kHz
Frame rate                               : 31.250 FPS (1536 SPF)
Bit depth                                : 16 bits
Compression mode                         : Lossy
Delay relative to video                  : -950 ms
Stream size                              : 43.9 MiB (2%)
Language                                 : English
Service kind                             : Complete MainAudio #2
ID                                       : 258 (0x102)
Menu ID                                  : 1 (0x1)
Format                                   : AC-3
Format/Info                              : Audio Coding 3
Commercial name                          : Dolby Digital
Codec ID                                 : 129
Duration                                 : 31 min 58 s
Bit rate mode                            : Constant
Bit rate                                 : 96.0 kb/s
Channel(s)                               : 2 channels
Channel layout                           : L R
Sampling rate                            : 48.0 kHz
Frame rate                               : 31.250 FPS (1536 SPF)
Bit depth                                : 16 bits
Compression mode                         : Lossy
Delay relative to video                  : -854 ms
Stream size                              : 22.0 MiB (1%)
Language                                 : Spanish
Language, more info                      : Visual impaired commentary
Service kind                             : Visually ImpairedText #1
ID                                       : 256 (0x100)-CC3
Menu ID                                  : 1 (0x1)
Format                                   : EIA-608
Muxing mode                              : A/53 / DTVCC Transport
Muxing mode, more info                   : Muxed in Video #1
Duration                                 : 31 min 48 s
Bit rate mode                            : Constant
Stream size                              : 0.00 Byte (0%)
CaptionServiceName                       : CC3Text #2
ID                                       : 256 (0x100)-3
Menu ID                                  : 1 (0x1)
Format                                   : EIA-708
Muxing mode                              : A/53 / DTVCC Transport
Muxing mode, more info                   : Muxed in Video #1
Duration                                 : 31 min 48 s
Bit rate mode                            : Constant
Stream size                              : 0.00 Byte (0%)Menu
ID                                       : 4096 (0x1000)
Menu ID                                  : 1 (0x1)
Duration                                 : 31 min 47 s
List                                     : 256 (0x100) (MPEG Video) / 257 (0x101) (AC-3, English) / 258 (0x102) (AC-3, Spanish)
Language                                 :  / English / Spanish
Service name                             : Service01
Service provider                         : FFmpeg
Service type                             : digital television

 

Leon-Zetekoff wrote on 5/3/2019, 8:44 AM

GM...I converted the .TS --> .MP4 which took quite awhile but I have been successful in editing the .MP4. Need to find out why .TS (mpg2) crashes.

Thanks leon