Comments

j-v wrote on 6/14/2019, 2:17 PM

We can only help you if you publish here the MediaInfo of that mp4. Than we can maybe give answer to your question how to open it with your MS 16 ( which version and buildnr. ?????) or that you have to convert it first.

met vriendelijke groet
Jan

Camera : Pan X900, GoPro Hero7 Hero Black, Samsung Galaxy A8
Desktop :MB Gigabyte Z390M, W10, i7 7900 4.7Ghz,16 DDR4 GB RAM, Gef. GTX 1660 Ti.
Laptop  :Asus ROG GL753VD, W10 home, version 1903 build 18.362,295 CPU i7 7700HQ, 16 GB RAM, GeF. GTX 1050 (2 GB) + Int. HD Graphics 630(2GB).VP 15,16,17 and VMS PL 15,16 are installed
Both Nvidia GPU's have driver version 431.86 Studio Drivers
TV      :LG 4K 55EG960V

Dutch video tutorials for beginners

My slogan is: BE OR BECOME A STEMCELL DONOR !!!

Arthur-Stoller wrote on 6/14/2019, 6:16 PM

General
Complete name : C:\Users\Andrew\Videos\Logitech\LogiCapture\2019-06-13_11-06-28.mp4
Format : MPEG-4
Format profile : Base Media
Codec ID : isom (isom/iso2/avc1/iso6/mp41)
File size : 23.8 MiB
Duration : 1 min 18 s
Overall bit rate : 2 561 kb/s
Writing application : Lavf57.66.102

Video
ID : 1
Format : AVC / AVC / AVC / AVC / AVC / AVC
Format/Info : Advanced Video Codec
Format profile : Baseline@L4 / Baseline@L4 / Baseline@L4 / Baseline@L4 / Baseline@L4 / Baseline@L4
Format settings : 1 Ref Frames / 1 Ref Frames / 1 Ref Frames / 1 Ref Frames / 1 Ref Frames / 1 Ref Frames
Format settings, CABAC : No / No / No / No / No / No
Format settings, Reference frames : 1 frame / 1 frame / 1 frame / 1 frame / 1 frame / 1 frame
Format settings, GOP : M=1, N=25 / M=1, N=25 / M=1, N=25 / M=1, N=25 / M=1, N=25 / M=1, N=25
Codec ID : avc1
Codec ID/Info : Advanced Video Coding
Duration : 1 min 17 s
Bit rate : 2 393 kb/s
Width : 1 920 pixels
Original width : 1 920 pixels / 1 920 pixels / 1 920 pixels / 1 920 pixels / 1 920 pixels / 1 920 pixels
Height : 1 080 pixels
Original height : 1 080 pixels / 1 080 pixels / 1 080 pixels / 1 080 pixels / 1 080 pixels / 1 080 pixels
Display aspect ratio : 16:9
Frame rate mode : Variable
Frame rate : 24.305 FPS
Minimum frame rate : 6.250 FPS
Maximum frame rate : 25.000 FPS
Color space : YUV
Chroma subsampling : 4:2:0 / 4:2:0 / 4:2:0 / 4:2:0 / 4:2:0 / 4:2:0
Bit depth : 8 bits / 8 bits / 8 bits / 8 bits / 8 bits / 8 bits
Scan type : Progressive / Progressive / Progressive / Progressive / Progressive / Progressive
Bits/(Pixel*Frame) : 0.047
Stream size : 22.2 MiB (93%)
Codec configuration box : avcC

Audio
ID : 2
Format : AAC LC
Format/Info : Advanced Audio Codec Low Complexity
Codec ID : mp4a-40-2
Duration : 1 min 18 s
Bit rate : 175 kb/s
Channel(s) : 2 channels
Channel layout : L R
Sampling rate : 48.0 kHz
Frame rate : 46.875 FPS (1024 SPF)
Compression mode : Lossy
Stream size : 1.63 MiB (7%)
Title : Mixed Audio
Default : Yes
Alternate group : 1

Arthur-Stoller wrote on 6/14/2019, 6:17 PM

vegas magic 16 build is latest

Musicvid wrote on 6/14/2019, 8:50 PM

Your video is variable frame rate. Easiest way for you is convert to fixed frame rate in Handbrake.