Vegas Pro 16 keeps rendering 0 byte files

andrew-barbato wrote on 4/20/2019, 9:06 AM

This seems to have occurred quite randomly. I went to render a project, and the rendered file was 0 bytes. I've tried software encoding and VCE hardware encoding in AVC/.mp4. It seems to actually render the entire project, showing the frame by frame progress in the preview window. Resource usage (CPU/GPU/RAM) is exactly as expected during rendering. But the result is (filename.mp4) and it's 0 bytes in size. It's an empty file.

I tried a few different projects with different source files (HEVC, AVC, different lengths, resolutions, and frame rates) and different levels of complexity (even just a plain unedited clip) - same thing.

  • I reinstalled Vegas, that didn't fix it.
  • I reinstalled my graphics software and drivers, that didn't fix it either.
  • And finally, I reinstalled Windows 10 and both of the above. That also didn't fix it.

Any ideas why this might be happening? It was working fine before, and I don't think I changed anything.

Specs:

  • Intel i7-8700k (6C 12T)
  • MSI Radeon VII (16GB HBM2)
  • 32 GB (4x8GB) Kingston HyperX DDR4 @ 2666 MHz
  • MSI MEG ACE Z390 Motherboard
  • WD Black SN750 NVMe M.2 SSD (500GB)

Comments

Former users wrote on 4/20/2019, 9:31 AM

This was my experience of the issue, may not be the same issue ...

https://www.vegascreativesoftware.info/us/forum/nvidia-nvenc-data-rate-limit--114708/

Extract from above post ...

“Eventually I found the culprit, the first clip in the project was a gh5 .mov clip with .pcm audio.”

Eagle Six wrote on 4/20/2019, 9:58 AM

@andrew-barbato have you done a full reset to Vegas? If you did a reinstall of Windows 10 (rather than a clean install) and uninstall/reinstall Vegas, there may still be some cached application data making Vegas do strange things.

System Specs......
Corsair Obsidian Series 450D ATX Mid Tower
Asus X99-A II LGA 2011-v3, Intel X99 SATA 6 Gb/s USB 3.1/3.0 ATX Intel Motherboard
Intel Core i7-6800K 15M Broadwell-E, 6 core 3.4 GHz LGA 2011-v3 (overclocked 20%)
64GB Corsair Vengeance LPX DDR4 3200
Corsair Hydro Series H110i GTX 280mm Extreme Performance Liquid CPU Cooler
MSI Radeon R9 390 DirectX 12 8GB Video Card
Corsair RMx Series RM750X 740W 80 Plus Gold power pack
Samsung 970 EVO NVMe M.2 boot drive
Corsair Neutron XT 2.5 480GB SATA III SSD - video work drive
Western Digitial 1TB 7200 RPM SATA - video work drive
Western Digital Black 6TB 7200 RPM SATA 6Bb/s 128MB Cache 3.5 data drive

Bluray Disc burner drive
2x 1080p monitors
Microsoft Window 10 Pro
DaVinci Resolve Studio 16 pb2
SVP13, MVP15, MVP16, SMSP13, MVMS15, MVMSP15, MVMSP16

andrew-barbato wrote on 4/20/2019, 10:39 AM

This was my experience of the issue, may not be the same issue ...

https://www.vegascreativesoftware.info/us/forum/nvidia-nvenc-data-rate-limit--114708/

Extract from above post ...

“Eventually I found the culprit, the first clip in the project was a gh5 .mov clip with .pcm audio.”

I don't think that's the case for me. Here's the media info of an example project with that problem, this is the only clip in the project:

Video

ID :1

Format :AVC

Format/Info :Advanced Video Codec

Format profile :High@L5.1

Format settings :CABAC / 1 Ref Frames

Format settings, CABAC :Yes

Format settings, RefFrames :1 frame

Format settings, GOP :M=1, N=15

Codec ID :avc1

Codec ID/Info :Advanced Video Coding

Duration :10 min 32 s

Bit rate :45.0 Mb/s

Width :3 840 pixels

Height :2 160 pixels

Display aspect ratio :16:9

Frame rate mode :Variable

Frame rate :29.970 (29970/1000) FPS

Minimum frame rate :28.571 FPS

Maximum frame rate :30.000 FPS

Color space :YUV

Chroma subsampling :4:2:0

Bit depth :8 bits

Scan type :Progressive

Bits/(Pixel*Frame) :0.181

Stream size :3.31 GiB (100%)

Title :Core Media Video

Encoded date :UTC 2019-04-17 13:57:09

Tagged date :UTC 2019-04-17 14:07:41

Color range :Limited

Color primaries :BT.709

Transfer characteristics :BT.709

Matrix coefficients :BT.709

Codec configuration box :avcC

 

Audio

ID :2

Format :AAC LC

Format/Info :Advanced Audio Codec Low Complexity

Codec ID :mp4a-40-2

Duration :10 min 32 s

Source duration :10 min 32 s

Bit rate mode :Variable

Bit rate :182 kb/s

Channel(s) :2 channels

Channel layout :L R

Sampling rate :44.1 kHz

Frame rate :43.066 FPS (1024 SPF)

Compression mode :Lossy

Stream size :13.7 MiB (0%)

Source stream size :13.7 MiB (0%)

Title :Core Media Audio

 

@andrew-barbato have you done a full reset to Vegas? If you did a reinstall of Windows 10 (rather than a clean install) and uninstall/reinstall Vegas, there may still be some cached application data making Vegas do strange things.

I did a 100% clean install (even going as far as clearing the CMOS). Everything was wiped.

Eagle Six wrote on 4/20/2019, 11:05 AM

@andrew-barbato do you have any source media that is constant frame rate, rather than the variable frame rate you posted, to try as a test, and have you tried rendering with Sony AVC format as a test?

System Specs......
Corsair Obsidian Series 450D ATX Mid Tower
Asus X99-A II LGA 2011-v3, Intel X99 SATA 6 Gb/s USB 3.1/3.0 ATX Intel Motherboard
Intel Core i7-6800K 15M Broadwell-E, 6 core 3.4 GHz LGA 2011-v3 (overclocked 20%)
64GB Corsair Vengeance LPX DDR4 3200
Corsair Hydro Series H110i GTX 280mm Extreme Performance Liquid CPU Cooler
MSI Radeon R9 390 DirectX 12 8GB Video Card
Corsair RMx Series RM750X 740W 80 Plus Gold power pack
Samsung 970 EVO NVMe M.2 boot drive
Corsair Neutron XT 2.5 480GB SATA III SSD - video work drive
Western Digitial 1TB 7200 RPM SATA - video work drive
Western Digital Black 6TB 7200 RPM SATA 6Bb/s 128MB Cache 3.5 data drive

Bluray Disc burner drive
2x 1080p monitors
Microsoft Window 10 Pro
DaVinci Resolve Studio 16 pb2
SVP13, MVP15, MVP16, SMSP13, MVMS15, MVMSP15, MVMSP16

andrew-barbato wrote on 4/20/2019, 2:40 PM

It seems like it was due to the bit rate I was trying to render at. It lets me render with both VCE and software encoding at 36M, but above that (I've only tried 48M and above, beyond that), it renders an empty file.

This is really unusual, because the project I'm working on is literally identical in Media Info, aside from length (10 minute clip vs 23 minute clip), to another one that I was able to render at 96M with no problem. They're both from my iPhone. Because of this, I don't think it has to do with the variable frame rate.

Something must have gotten changed, but after doing completely fresh installations of everything down to my OS, I'm baffled. The quality is atrocious on the 36M renders. Looks all blocky and highly compressed, way lower quality than the original clip (which by the way is about 45M).

 

Eagle Six wrote on 4/20/2019, 3:16 PM

Use MainConcept instead of the VCE and set the bit rate to 50,000,000/50,000.000 or use CBR, that should bring the bit rate up, see if that makes it better.

System Specs......
Corsair Obsidian Series 450D ATX Mid Tower
Asus X99-A II LGA 2011-v3, Intel X99 SATA 6 Gb/s USB 3.1/3.0 ATX Intel Motherboard
Intel Core i7-6800K 15M Broadwell-E, 6 core 3.4 GHz LGA 2011-v3 (overclocked 20%)
64GB Corsair Vengeance LPX DDR4 3200
Corsair Hydro Series H110i GTX 280mm Extreme Performance Liquid CPU Cooler
MSI Radeon R9 390 DirectX 12 8GB Video Card
Corsair RMx Series RM750X 740W 80 Plus Gold power pack
Samsung 970 EVO NVMe M.2 boot drive
Corsair Neutron XT 2.5 480GB SATA III SSD - video work drive
Western Digitial 1TB 7200 RPM SATA - video work drive
Western Digital Black 6TB 7200 RPM SATA 6Bb/s 128MB Cache 3.5 data drive

Bluray Disc burner drive
2x 1080p monitors
Microsoft Window 10 Pro
DaVinci Resolve Studio 16 pb2
SVP13, MVP15, MVP16, SMSP13, MVMS15, MVMSP15, MVMSP16

j-v wrote on 4/20/2019, 3:21 PM

Your processor inludes also the Intell 630 GPU., so I think that you have also the Magix AVC Intel QSV rendertemplate.


Did you try that one also with your bitrate settings? I don't see problems rendering with that one with high bitrates and it goes with me the fastest.

met vriendelijke groet
Jan

Camera : Pan X900, GoPro Hero7 Hero Black, Samsung Galaxy A8
Desktop :MB Gigabyte Z390M, W10, i7 9700 4.7Ghz,16 DDR4 GB RAM, Gef. GTX 1660 Ti.
Laptop  :Asus ROG GL753VD, W10 home, version 1903 build 18.362,295 CPU i7 7700HQ, 16 GB RAM, GeF. GTX 1050 (2 GB) + Int. HD Graphics 630(2GB).VP 16,17 and VMS PL 16 are installed
Both Nvidia GPU's have driver version 441.28 Studio Driver, desktop the Studio DHC driver
TV      :LG 4K 55EG960V

Dutch video tutorials for beginners

My slogan is: BE OR BECOME A STEMCELL DONOR !!!

Former users wrote on 4/20/2019, 3:52 PM

It seems like it was due to the bit rate I was trying to render at. It lets me render with both VCE and software encoding at 36M, but above that (I've only tried 48M and above, beyond that), it renders an empty file.

 

@andrew-barbato

This is another extract from the link I earlier posted, 2nd. post this page.

On my laptop (Nvidia 1070) I found the Max render setting I could get was 46/45 Mbps.  Anything above that produced an unusable output file.”

j-v wrote on 4/20/2019, 4:24 PM

Referring to my comment here I show you my rendering a 1 min file to your export type with the QSV option of the Magix AVC codec

met vriendelijke groet
Jan

Camera : Pan X900, GoPro Hero7 Hero Black, Samsung Galaxy A8
Desktop :MB Gigabyte Z390M, W10, i7 9700 4.7Ghz,16 DDR4 GB RAM, Gef. GTX 1660 Ti.
Laptop  :Asus ROG GL753VD, W10 home, version 1903 build 18.362,295 CPU i7 7700HQ, 16 GB RAM, GeF. GTX 1050 (2 GB) + Int. HD Graphics 630(2GB).VP 16,17 and VMS PL 16 are installed
Both Nvidia GPU's have driver version 441.28 Studio Driver, desktop the Studio DHC driver
TV      :LG 4K 55EG960V

Dutch video tutorials for beginners

My slogan is: BE OR BECOME A STEMCELL DONOR !!!

andrew-barbato wrote on 4/21/2019, 2:58 AM

Since I have an AMD dedicated GPU installed, Intel will not let me install the driver for UHD 630. So I have AMD VCE and Mainconcept AVC as render options for the MAGIX AVC/AAC settings. Mainconcept AVC works up to 48M, but the quality is really bad.

 

I've done some experimenting and here's the strange thing: There's one clip that worked just fine, and I can render it at 96M with AMD VCE with excellent quality. The quality is even great at 48M, and with Mainconcept AVC too. But then I have 5 other clips that are basically identical to it. Same source (iPhone), same format, same encoding, same bitrate, same framerate, same resolution. But none of them work.

 

None of these clips appear to be corrupt in anyway. They all play perfectly fine, in media players and Vegas.

 

Here's the advanced version of the media info for the 1 working one and 3 of the non-working ones. The only significant difference I see is that the first one was below a 45M bitrate. But then I tried another [otherwise identical] clip that was slightly lower than it, and it didn't work.

 

WORKING CLIP:

General
Count                                    : 336
Count of stream of this kind             : 1
Kind of stream                           : General
Kind of stream                           : General
Stream identifier                        : 0
Count of video streams                   : 1
Count of audio streams                   : 1
OtherCount                               : 2
Video_Format_List                        : AVC
Video_Format_WithHint_List               : AVC
Codecs Video                             : AVC
Audio_Format_List                        : AAC LC
Audio_Format_WithHint_List               : AAC LC
Audio codecs                             : AAC LC
Complete name                            : A:\Storage\5.1 Vegas\2\TRIAL\2019-04-15 @ 08;15.MOV
Folder name                              : A:\Storage\5.1 Vegas\2\TRIAL
File name                                : 2019-04-15 @ 08;15.MOV
File name                                : 2019-04-15 @ 08;15
File extension                           : MOV
Format                                   : MPEG-4
Format                                   : MPEG-4
Format/Extensions usually used           : mov mp4 m4v m4a m4b m4p 3ga 3gpa 3gpp 3gp 3gpp2 3g2 k3g jpm jpx mqv ismv isma ismt f4a f4b f4v
Commercial name                          : MPEG-4
Format profile                           : QuickTime
Internet media type                      : video/mp4
Codec ID                                 : qt  
Codec ID                                 : qt   0000.00 (qt  )
Codec ID/Url                             : http://www.apple.com/quicktime/download/standalone.html
CodecID_Version                          : 0000.00
CodecID_Compatible                       : qt  
File size                                : 7677685654
File size                                : 7.15 GiB
File size                                : 7 GiB
File size                                : 7.2 GiB
File size                                : 7.15 GiB
File size                                : 7.150 GiB
Duration                                 : 1384490
Duration                                 : 23 min 4 s
Duration                                 : 23 min 4 s 490 ms
Duration                                 : 23 min 4 s
Duration                                 : 00:23:04.490
Duration                                 : 00:23:04;20
Duration                                 : 00:23:04.490 (00:23:04;20)
Overall bit rate mode                    : VBR
Overall bit rate mode                    : Variable
Overall bit rate                         : 44363980
Overall bit rate                         : 44.4 Mb/s
Frame rate                               : 29.970
Frame rate                               : 29.970 FPS
Frame count                              : 41498
Stream size                              : 4435892
Stream size                              : 4.23 MiB (0%)
Stream size                              : 4 MiB
Stream size                              : 4.2 MiB
Stream size                              : 4.23 MiB
Stream size                              : 4.230 MiB
Stream size                              : 4.23 MiB (0%)
Proportion of this stream                : 0.00058
HeaderSize                               : 20
DataSize                                 : 7676885355
FooterSize                               : 800279
IsStreamable                             : No
Encoded date                             : UTC 2019-04-15 12:15:56
Tagged date                              : UTC 2019-04-15 12:39:01
File creation date                       : UTC 2019-04-21 09:30:39.873
File creation date (local)               : 2019-04-21 02:30:39.873
File last modification date              : UTC 2019-04-15 12:15:55.000
File last modification date (local)      : 2019-04-15 05:15:55.000
Writing library                          : Apple QuickTime
Writing library                          : Apple QuickTime
Encoded_Library_Name                     : Apple QuickTime
com.apple.quicktime.make                 : Apple
com.apple.quicktime.model                : iPhone XR
com.apple.quicktime.software             : 12.2
com.apple.quicktime.creationdate         : 2019-04-15T08:15:55-0400

Video
Count                                    : 348
Count of stream of this kind             : 1
Kind of stream                           : Video
Kind of stream                           : Video
Stream identifier                        : 0
StreamOrder                              : 0
ID                                       : 1
ID                                       : 1
Format                                   : AVC
Format                                   : AVC
Format/Info                              : Advanced Video Codec
Format/Url                               : http://developers.videolan.org/x264.html
Commercial name                          : AVC
Format profile                           : High@L5.1
Format settings                          : CABAC / 1 Ref Frames
Format settings, CABAC                   : Yes
Format settings, CABAC                   : Yes
Format settings, RefFrames               : 1
Format settings, RefFrames               : 1 frame
Format settings, GOP                     : M=1, N=15
Internet media type                      : video/H264
Codec ID                                 : avc1
Codec ID/Info                            : Advanced Video Coding
Duration                                 : 1384490
Duration                                 : 23 min 4 s
Duration                                 : 23 min 4 s 490 ms
Duration                                 : 23 min 4 s
Duration                                 : 00:23:04.490
Duration                                 : 00:23:04;20
Duration                                 : 00:23:04.490 (00:23:04;20)
Bit rate                                 : 44155662
Bit rate                                 : 44.2 Mb/s
Width                                    : 3840
Width                                    : 3 840 pixels
Height                                   : 2160
Height                                   : 2 160 pixels
Sampled_Width                            : 3840
Sampled_Height                           : 2160
Pixel aspect ratio                       : 1.000
Display aspect ratio                     : 1.778
Display aspect ratio                     : 16:9
Rotation                                 : 0.000
Frame rate mode                          : VFR
Frame rate mode                          : Variable
Frame rate                               : 29.970
Frame rate                               : 29.970 (29970/1000) FPS
FrameRate_Num                            : 29970
FrameRate_Den                            : 1000
Minimum frame rate                       : 28.571
Minimum frame rate                       : 28.571 FPS
Maximum frame rate                       : 30.000
Maximum frame rate                       : 30.000 FPS
Frame count                              : 41498
Color space                              : YUV
Chroma subsampling                       : 4:2:0
Chroma subsampling                       : 4:2:0
Bit depth                                : 8
Bit depth                                : 8 bits
Scan type                                : Progressive
Scan type                                : Progressive
Bits/(Pixel*Frame)                       : 0.178
Stream size                              : 7642524391
Stream size                              : 7.12 GiB (100%)
Stream size                              : 7 GiB
Stream size                              : 7.1 GiB
Stream size                              : 7.12 GiB
Stream size                              : 7.118 GiB
Stream size                              : 7.12 GiB (100%)
Proportion of this stream                : 0.99542
Title                                    : Core Media Video
Encoded date                             : UTC 2019-04-15 12:15:56
Tagged date                              : UTC 2019-04-15 12:39:01
Color range                              : Limited
colour_description_present               : Yes
Color primaries                          : BT.709
Transfer characteristics                 : BT.709
Matrix coefficients                      : BT.709
Codec configuration box                  : avcC

Audio
Count                                    : 277
Count of stream of this kind             : 1
Kind of stream                           : Audio
Kind of stream                           : Audio
Stream identifier                        : 0
StreamOrder                              : 1
ID                                       : 2
ID                                       : 2
Format                                   : AAC
Format                                   : AAC LC
Format/Info                              : Advanced Audio Codec Low Complexity
Commercial name                          : AAC
Format_AdditionalFeatures                : LC
Codec ID                                 : mp4a-40-2
Duration                                 : 1384490
Duration                                 : 23 min 4 s
Duration                                 : 23 min 4 s 490 ms
Duration                                 : 23 min 4 s
Duration                                 : 00:23:04.490
Duration                                 : 00:23:06:27
Duration                                 : 00:23:04.490 (00:23:06:27)
Source duration                          : 1384560
Source duration                          : 23 min 4 s
Source duration                          : 23 min 4 s 560 ms
Source duration                          : 23 min 4 s
Source duration                          : 00:23:04.560
Bit rate mode                            : VBR
Bit rate mode                            : Variable
Bit rate                                 : 177540
Bit rate                                 : 178 kb/s
Channel(s)                               : 2
Channel(s)                               : 2 channels
Channel positions                        : Front: L R
Channel positions                        : 2/0/0
Channel layout                           : L R
Samples per frame                        : 1024
Sampling rate                            : 44100
Sampling rate                            : 44.1 kHz
Samples count                            : 61056008
Frame rate                               : 43.066
Frame rate                               : 43.066 FPS (1024 SPF)
Frame count                              : 59625
Source frame count                       : 59628
Compression mode                         : Lossy
Compression mode                         : Lossy
Stream size                              : 30725371
Stream size                              : 29.3 MiB (0%)
Stream size                              : 29 MiB
Stream size                              : 29 MiB
Stream size                              : 29.3 MiB
Stream size                              : 29.30 MiB
Stream size                              : 29.3 MiB (0%)
Proportion of this stream                : 0.00400
Source stream size                       : 30726457
Source stream size                       : 29.3 MiB (0%)
Source stream size                       : 29 MiB
Source stream size                       : 29 MiB
Source stream size                       : 29.3 MiB
Source stream size                       : 29.30 MiB
Source stream size                       : 29.3 MiB (0%)
Source_StreamSize_Proportion             : 0.00400
Title                                    : Core Media Audio
Encoded date                             : UTC 2019-04-15 12:15:56
Tagged date                              : UTC 2019-04-15 12:39:01

Other #1
Count                                    : 116
Count of stream of this kind             : 2
Kind of stream                           : Other
Kind of stream                           : Other
Stream identifier                        : 0
Stream identifier                        : 1
Type                                     : meta
Duration                                 : 1384490
Duration                                 : 23 min 4 s
Duration                                 : 23 min 4 s 490 ms
Duration                                 : 23 min 4 s
Duration                                 : 00:23:04.490
Duration                                 : 00:23:04.490
Frame count                              : 27018
Bit rate mode                            : VBR

Other #2
Count                                    : 116
Count of stream of this kind             : 2
Kind of stream                           : Other
Kind of stream                           : Other
Stream identifier                        : 1
Stream identifier                        : 2
Type                                     : meta
Duration                                 : 1384490
Duration                                 : 23 min 4 s
Duration                                 : 23 min 4 s 490 ms
Duration                                 : 23 min 4 s
Duration                                 : 00:23:04.490
Duration                                 : 00:23:04.490
Frame count                              : 1
Bit rate mode                            : CBR

andrew-barbato wrote on 4/21/2019, 2:58 AM

NON-WORKING #1:

General
Count                                    : 336
Count of stream of this kind             : 1
Kind of stream                           : General
Kind of stream                           : General
Stream identifier                        : 0
Count of video streams                   : 1
Count of audio streams                   : 1
OtherCount                               : 2
Video_Format_List                        : AVC
Video_Format_WithHint_List               : AVC
Codecs Video                             : AVC
Audio_Format_List                        : AAC LC
Audio_Format_WithHint_List               : AAC LC
Audio codecs                             : AAC LC
Complete name                            : A:\Storage\5.1 Vegas\2\TRIAL\2019-04-17 @ 09;39.MOV
Folder name                              : A:\Storage\5.1 Vegas\2\TRIAL
File name                                : 2019-04-17 @ 09;39.MOV
File name                                : 2019-04-17 @ 09;39
File extension                           : MOV
Format                                   : MPEG-4
Format                                   : MPEG-4
Format/Extensions usually used           : mov mp4 m4v m4a m4b m4p 3ga 3gpa 3gpp 3gp 3gpp2 3g2 k3g jpm jpx mqv ismv isma ismt f4a f4b f4v
Commercial name                          : MPEG-4
Format profile                           : QuickTime
Internet media type                      : video/mp4
Codec ID                                 : qt  
Codec ID                                 : qt   0000.00 (qt  )
Codec ID/Url                             : http://www.apple.com/quicktime/download/standalone.html
CodecID_Version                          : 0000.00
CodecID_Compatible                       : qt  
File size                                : 1492294271
File size                                : 1.39 GiB
File size                                : 1 GiB
File size                                : 1.4 GiB
File size                                : 1.39 GiB
File size                                : 1.390 GiB
Duration                                 : 261765
Duration                                 : 4 min 21 s
Duration                                 : 4 min 21 s 765 ms
Duration                                 : 4 min 21 s
Duration                                 : 00:04:21.765
Duration                                 : 00:04:21;24
Duration                                 : 00:04:21.765 (00:04:21;24)
Overall bit rate mode                    : VBR
Overall bit rate mode                    : Variable
Overall bit rate                         : 45607144
Overall bit rate                         : 45.6 Mb/s
Frame rate                               : 29.970
Frame rate                               : 29.970 FPS
Frame count                              : 7846
Stream size                              : 380865
Stream size                              : 372 KiB (0%)
Stream size                              : 372 KiB
Stream size                              : 372 KiB
Stream size                              : 372 KiB
Stream size                              : 371.9 KiB
Stream size                              : 372 KiB (0%)
Proportion of this stream                : 0.00026
HeaderSize                               : 28
DataSize                                 : 1492164804
FooterSize                               : 129439
IsStreamable                             : No
Encoded date                             : UTC 2019-04-17 13:39:06
Tagged date                              : UTC 2019-04-17 13:43:28
File creation date                       : UTC 2019-04-21 10:15:01.282
File creation date (local)               : 2019-04-21 03:15:01.282
File last modification date              : UTC 2019-04-17 13:39:05.000
File last modification date (local)      : 2019-04-17 06:39:05.000
Writing library                          : Apple QuickTime
Writing library                          : Apple QuickTime
Encoded_Library_Name                     : Apple QuickTime
com.apple.quicktime.make                 : Apple
com.apple.quicktime.model                : iPhone XR
com.apple.quicktime.software             : 12.2
com.apple.quicktime.creationdate         : 2019-04-17T09:39:05-0400

Video
Count                                    : 348
Count of stream of this kind             : 1
Kind of stream                           : Video
Kind of stream                           : Video
Stream identifier                        : 0
StreamOrder                              : 0
ID                                       : 1
ID                                       : 1
Format                                   : AVC
Format                                   : AVC
Format/Info                              : Advanced Video Codec
Format/Url                               : http://developers.videolan.org/x264.html
Commercial name                          : AVC
Format profile                           : High@L5.1
Format settings                          : CABAC / 1 Ref Frames
Format settings, CABAC                   : Yes
Format settings, CABAC                   : Yes
Format settings, RefFrames               : 1
Format settings, RefFrames               : 1 frame
Format settings, GOP                     : M=1, N=15
Internet media type                      : video/H264
Codec ID                                 : avc1
Codec ID/Info                            : Advanced Video Coding
Duration                                 : 261765
Duration                                 : 4 min 21 s
Duration                                 : 4 min 21 s 765 ms
Duration                                 : 4 min 21 s
Duration                                 : 00:04:21.765
Duration                                 : 00:04:21;24
Duration                                 : 00:04:21.765 (00:04:21;24)
Bit rate                                 : 45401843
Bit rate                                 : 45.4 Mb/s
Width                                    : 3840
Width                                    : 3 840 pixels
Height                                   : 2160
Height                                   : 2 160 pixels
Sampled_Width                            : 3840
Sampled_Height                           : 2160
Pixel aspect ratio                       : 1.000
Display aspect ratio                     : 1.778
Display aspect ratio                     : 16:9
Rotation                                 : 0.000
Frame rate mode                          : VFR
Frame rate mode                          : Variable
Frame rate                               : 29.970
Frame rate                               : 29.970 (29970/1000) FPS
FrameRate_Num                            : 29970
FrameRate_Den                            : 1000
Minimum frame rate                       : 28.571
Minimum frame rate                       : 28.571 FPS
Maximum frame rate                       : 30.000
Maximum frame rate                       : 30.000 FPS
Frame count                              : 7846
Color space                              : YUV
Chroma subsampling                       : 4:2:0
Chroma subsampling                       : 4:2:0
Bit depth                                : 8
Bit depth                                : 8 bits
Scan type                                : Progressive
Scan type                                : Progressive
Bits/(Pixel*Frame)                       : 0.183
Stream size                              : 1485747660
Stream size                              : 1.38 GiB (100%)
Stream size                              : 1 GiB
Stream size                              : 1.4 GiB
Stream size                              : 1.38 GiB
Stream size                              : 1.384 GiB
Stream size                              : 1.38 GiB (100%)
Proportion of this stream                : 0.99561
Title                                    : Core Media Video
Encoded date                             : UTC 2019-04-17 13:39:06
Tagged date                              : UTC 2019-04-17 13:43:28
Color range                              : Limited
colour_description_present               : Yes
Color primaries                          : BT.709
Transfer characteristics                 : BT.709
Matrix coefficients                      : BT.709
Codec configuration box                  : avcC

Audio
Count                                    : 277
Count of stream of this kind             : 1
Kind of stream                           : Audio
Kind of stream                           : Audio
Stream identifier                        : 0
StreamOrder                              : 1
ID                                       : 2
ID                                       : 2
Format                                   : AAC
Format                                   : AAC LC
Format/Info                              : Advanced Audio Codec Low Complexity
Commercial name                          : AAC
Format_AdditionalFeatures                : LC
Codec ID                                 : mp4a-40-2
Duration                                 : 261763
Duration                                 : 4 min 21 s
Duration                                 : 4 min 21 s 763 ms
Duration                                 : 4 min 21 s
Duration                                 : 00:04:21.763
Duration                                 : 00:04:22:07
Duration                                 : 00:04:21.763 (00:04:22:07)
Source duration                          : 261828
Source duration                          : 4 min 21 s
Source duration                          : 4 min 21 s 828 ms
Source duration                          : 4 min 21 s
Source duration                          : 00:04:21.828
Bit rate mode                            : VBR
Bit rate mode                            : Variable
Bit rate                                 : 192000
Bit rate                                 : 192 kb/s
Channel(s)                               : 2
Channel(s)                               : 2 channels
Channel positions                        : Front: L R
Channel positions                        : 2/0/0
Channel layout                           : L R
Samples per frame                        : 1024
Sampling rate                            : 44100
Sampling rate                            : 44.1 kHz
Samples count                            : 11543748
Frame rate                               : 43.066
Frame rate                               : 43.066 FPS (1024 SPF)
Frame count                              : 11273
Source frame count                       : 11276
Compression mode                         : Lossy
Compression mode                         : Lossy
Stream size                              : 6165746
Stream size                              : 5.88 MiB (0%)
Stream size                              : 6 MiB
Stream size                              : 5.9 MiB
Stream size                              : 5.88 MiB
Stream size                              : 5.880 MiB
Stream size                              : 5.88 MiB (0%)
Proportion of this stream                : 0.00413
Source stream size                       : 6167233
Source stream size                       : 5.88 MiB (0%)
Source stream size                       : 6 MiB
Source stream size                       : 5.9 MiB
Source stream size                       : 5.88 MiB
Source stream size                       : 5.882 MiB
Source stream size                       : 5.88 MiB (0%)
Source_StreamSize_Proportion             : 0.00413
Title                                    : Core Media Audio
Encoded date                             : UTC 2019-04-17 13:39:06
Tagged date                              : UTC 2019-04-17 13:43:28

Other #1
Count                                    : 116
Count of stream of this kind             : 2
Kind of stream                           : Other
Kind of stream                           : Other
Stream identifier                        : 0
Stream identifier                        : 1
Type                                     : meta
Duration                                 : 261765
Duration                                 : 4 min 21 s
Duration                                 : 4 min 21 s 765 ms
Duration                                 : 4 min 21 s
Duration                                 : 00:04:21.765
Duration                                 : 00:04:21.765
Frame count                              : 814
Bit rate mode                            : VBR

Other #2
Count                                    : 116
Count of stream of this kind             : 2
Kind of stream                           : Other
Kind of stream                           : Other
Stream identifier                        : 1
Stream identifier                        : 2
Type                                     : meta
Duration                                 : 261765
Duration                                 : 4 min 21 s
Duration                                 : 4 min 21 s 765 ms
Duration                                 : 4 min 21 s
Duration                                 : 00:04:21.765
Duration                                 : 00:04:21.765
Frame count                              : 1
Bit rate mode                            : CBR

andrew-barbato wrote on 4/21/2019, 2:58 AM

NON-WORKING #2:

General
Count                                    : 336
Count of stream of this kind             : 1
Kind of stream                           : General
Kind of stream                           : General
Stream identifier                        : 0
Count of video streams                   : 1
Count of audio streams                   : 1
OtherCount                               : 2
Video_Format_List                        : AVC
Video_Format_WithHint_List               : AVC
Codecs Video                             : AVC
Audio_Format_List                        : AAC LC
Audio_Format_WithHint_List               : AAC LC
Audio codecs                             : AAC LC
Complete name                            : A:\Storage\5.1 Vegas\2\TRIAL\2019-04-17 @ 09;48.MOV
Folder name                              : A:\Storage\5.1 Vegas\2\TRIAL
File name                                : 2019-04-17 @ 09;48.MOV
File name                                : 2019-04-17 @ 09;48
File extension                           : MOV
Format                                   : MPEG-4
Format                                   : MPEG-4
Format/Extensions usually used           : mov mp4 m4v m4a m4b m4p 3ga 3gpa 3gpp 3gp 3gpp2 3g2 k3g jpm jpx mqv ismv isma ismt f4a f4b f4v
Commercial name                          : MPEG-4
Format profile                           : QuickTime
Internet media type                      : video/mp4
Codec ID                                 : qt  
Codec ID                                 : qt   0000.00 (qt  )
Codec ID/Url                             : http://www.apple.com/quicktime/download/standalone.html
CodecID_Version                          : 0000.00
CodecID_Compatible                       : qt  
File size                                : 862938501
File size                                : 823 MiB
File size                                : 823 MiB
File size                                : 823 MiB
File size                                : 823 MiB
File size                                : 823.0 MiB
Duration                                 : 151968
Duration                                 : 2 min 31 s
Duration                                 : 2 min 31 s 968 ms
Duration                                 : 2 min 31 s
Duration                                 : 00:02:31.968
Duration                                 : 00:02:31;29
Duration                                 : 00:02:31.968 (00:02:31;29)
Overall bit rate mode                    : VBR
Overall bit rate mode                    : Variable
Overall bit rate                         : 45427380
Overall bit rate                         : 45.4 Mb/s
Frame rate                               : 29.970
Frame rate                               : 29.970 FPS
Frame count                              : 4555
Stream size                              : 171669
Stream size                              : 168 KiB (0%)
Stream size                              : 168 KiB
Stream size                              : 168 KiB
Stream size                              : 168 KiB
Stream size                              : 167.6 KiB
Stream size                              : 168 KiB (0%)
Proportion of this stream                : 0.00020
HeaderSize                               : 28
DataSize                                 : 862865305
FooterSize                               : 73168
IsStreamable                             : No
Encoded date                             : UTC 2019-04-17 13:48:01
Tagged date                              : UTC 2019-04-17 13:50:34
File creation date                       : UTC 2019-04-21 10:15:16.167
File creation date (local)               : 2019-04-21 03:15:16.167
File last modification date              : UTC 2019-04-17 13:48:00.000
File last modification date (local)      : 2019-04-17 06:48:00.000
Writing library                          : Apple QuickTime
Writing library                          : Apple QuickTime
Encoded_Library_Name                     : Apple QuickTime
com.apple.quicktime.make                 : Apple
com.apple.quicktime.model                : iPhone XR
com.apple.quicktime.software             : 12.2
com.apple.quicktime.creationdate         : 2019-04-17T09:48:00-0400

Video
Count                                    : 348
Count of stream of this kind             : 1
Kind of stream                           : Video
Kind of stream                           : Video
Stream identifier                        : 0
StreamOrder                              : 0
ID                                       : 1
ID                                       : 1
Format                                   : AVC
Format                                   : AVC
Format/Info                              : Advanced Video Codec
Format/Url                               : http://developers.videolan.org/x264.html
Commercial name                          : AVC
Format profile                           : High@L5.1
Format settings                          : CABAC / 1 Ref Frames
Format settings, CABAC                   : Yes
Format settings, CABAC                   : Yes
Format settings, RefFrames               : 1
Format settings, RefFrames               : 1 frame
Format settings, GOP                     : M=1, N=15
Internet media type                      : video/H264
Codec ID                                 : avc1
Codec ID/Info                            : Advanced Video Coding
Duration                                 : 151968
Duration                                 : 2 min 31 s
Duration                                 : 2 min 31 s 968 ms
Duration                                 : 2 min 31 s
Duration                                 : 00:02:31.968
Duration                                 : 00:02:31;29
Duration                                 : 00:02:31.968 (00:02:31;29)
Bit rate                                 : 45229195
Bit rate                                 : 45.2 Mb/s
Width                                    : 3840
Width                                    : 3 840 pixels
Height                                   : 2160
Height                                   : 2 160 pixels
Sampled_Width                            : 3840
Sampled_Height                           : 2160
Pixel aspect ratio                       : 1.000
Display aspect ratio                     : 1.778
Display aspect ratio                     : 16:9
Rotation                                 : 0.000
Frame rate mode                          : VFR
Frame rate mode                          : Variable
Frame rate                               : 29.970
Frame rate                               : 29.970 (29970/1000) FPS
FrameRate_Num                            : 29970
FrameRate_Den                            : 1000
Minimum frame rate                       : 28.571
Minimum frame rate                       : 28.571 FPS
Maximum frame rate                       : 30.000
Maximum frame rate                       : 30.000 FPS
Frame count                              : 4555
Color space                              : YUV
Chroma subsampling                       : 4:2:0
Chroma subsampling                       : 4:2:0
Bit depth                                : 8
Bit depth                                : 8 bits
Scan type                                : Progressive
Scan type                                : Progressive
Bits/(Pixel*Frame)                       : 0.182
Stream size                              : 859271711
Stream size                              : 819 MiB (100%)
Stream size                              : 819 MiB
Stream size                              : 819 MiB
Stream size                              : 819 MiB
Stream size                              : 819.5 MiB
Stream size                              : 819 MiB (100%)
Proportion of this stream                : 0.99575
Title                                    : Core Media Video
Encoded date                             : UTC 2019-04-17 13:48:01
Tagged date                              : UTC 2019-04-17 13:50:34
Color range                              : Limited
colour_description_present               : Yes
Color primaries                          : BT.709
Transfer characteristics                 : BT.709
Matrix coefficients                      : BT.709
Codec configuration box                  : avcC

Audio
Count                                    : 277
Count of stream of this kind             : 1
Kind of stream                           : Audio
Kind of stream                           : Audio
Stream identifier                        : 0
StreamOrder                              : 1
ID                                       : 2
ID                                       : 2
Format                                   : AAC
Format                                   : AAC LC
Format/Info                              : Advanced Audio Codec Low Complexity
Commercial name                          : AAC
Format_AdditionalFeatures                : LC
Codec ID                                 : mp4a-40-2
Duration                                 : 151967
Duration                                 : 2 min 31 s
Duration                                 : 2 min 31 s 967 ms
Duration                                 : 2 min 31 s
Duration                                 : 00:02:31.967
Duration                                 : 00:02:32:09
Duration                                 : 00:02:31.967 (00:02:32:09)
Source duration                          : 152021
Source duration                          : 2 min 32 s
Source duration                          : 2 min 32 s 21 ms
Source duration                          : 2 min 32 s
Source duration                          : 00:02:32.021
Bit rate mode                            : VBR
Bit rate mode                            : Variable
Bit rate                                 : 183994
Bit rate                                 : 184 kb/s
Channel(s)                               : 2
Channel(s)                               : 2 channels
Channel positions                        : Front: L R
Channel positions                        : 2/0/0
Channel layout                           : L R
Samples per frame                        : 1024
Sampling rate                            : 44100
Sampling rate                            : 44.1 kHz
Samples count                            : 6701745
Frame rate                               : 43.066
Frame rate                               : 43.066 FPS (1024 SPF)
Frame count                              : 6545
Source frame count                       : 6547
Compression mode                         : Lossy
Compression mode                         : Lossy
Stream size                              : 3495121
Stream size                              : 3.33 MiB (0%)
Stream size                              : 3 MiB
Stream size                              : 3.3 MiB
Stream size                              : 3.33 MiB
Stream size                              : 3.333 MiB
Stream size                              : 3.33 MiB (0%)
Proportion of this stream                : 0.00405
Source stream size                       : 3495951
Source stream size                       : 3.33 MiB (0%)
Source stream size                       : 3 MiB
Source stream size                       : 3.3 MiB
Source stream size                       : 3.33 MiB
Source stream size                       : 3.334 MiB
Source stream size                       : 3.33 MiB (0%)
Source_StreamSize_Proportion             : 0.00405
Title                                    : Core Media Audio
Encoded date                             : UTC 2019-04-17 13:48:01
Tagged date                              : UTC 2019-04-17 13:50:34

Other #1
Count                                    : 116
Count of stream of this kind             : 2
Kind of stream                           : Other
Kind of stream                           : Other
Stream identifier                        : 0
Stream identifier                        : 1
Type                                     : meta
Duration                                 : 151968
Duration                                 : 2 min 31 s
Duration                                 : 2 min 31 s 968 ms
Duration                                 : 2 min 31 s
Duration                                 : 00:02:31.968
Duration                                 : 00:02:31.968
Frame count                              : 1
Bit rate mode                            : CBR

Other #2
Count                                    : 116
Count of stream of this kind             : 2
Kind of stream                           : Other
Kind of stream                           : Other
Stream identifier                        : 1
Stream identifier                        : 2
Type                                     : meta
Duration                                 : 151968
Duration                                 : 2 min 31 s
Duration                                 : 2 min 31 s 968 ms
Duration                                 : 2 min 31 s
Duration                                 : 00:02:31.968
Duration                                 : 00:02:31.968
Frame count                              : 1
Bit rate mode                            : CBR

andrew-barbato wrote on 4/21/2019, 2:58 AM

NON-WORKING #3:

General
Count                                    : 336
Count of stream of this kind             : 1
Kind of stream                           : General
Kind of stream                           : General
Stream identifier                        : 0
Count of video streams                   : 1
Count of audio streams                   : 1
OtherCount                               : 2
Video_Format_List                        : AVC
Video_Format_WithHint_List               : AVC
Codecs Video                             : AVC
Audio_Format_List                        : AAC LC
Audio_Format_WithHint_List               : AAC LC
Audio codecs                             : AAC LC
Complete name                            : A:\Storage\5.1 Vegas\2\TRIAL\2019-04-17 @ 09;57.MOV
Folder name                              : A:\Storage\5.1 Vegas\2\TRIAL
File name                                : 2019-04-17 @ 09;57.MOV
File name                                : 2019-04-17 @ 09;57
File extension                           : MOV
Format                                   : MPEG-4
Format                                   : MPEG-4
Format/Extensions usually used           : mov mp4 m4v m4a m4b m4p 3ga 3gpa 3gpp 3gp 3gpp2 3g2 k3g jpm jpx mqv ismv isma ismt f4a f4b f4v
Commercial name                          : MPEG-4
Format profile                           : QuickTime
Internet media type                      : video/mp4
Codec ID                                 : qt  
Codec ID                                 : qt   0000.00 (qt  )
Codec ID/Url                             : http://www.apple.com/quicktime/download/standalone.html
CodecID_Version                          : 0000.00
CodecID_Compatible                       : qt  
File size                                : 3570609780
File size                                : 3.33 GiB
File size                                : 3 GiB
File size                                : 3.3 GiB
File size                                : 3.33 GiB
File size                                : 3.325 GiB
Duration                                 : 632192
Duration                                 : 10 min 32 s
Duration                                 : 10 min 32 s 192 ms
Duration                                 : 10 min 32 s
Duration                                 : 00:10:32.192
Duration                                 : 00:10:32;07
Duration                                 : 00:10:32.192 (00:10:32;07)
Overall bit rate mode                    : VBR
Overall bit rate mode                    : Variable
Overall bit rate                         : 45183864
Overall bit rate                         : 45.2 Mb/s
Frame rate                               : 29.970
Frame rate                               : 29.970 FPS
Frame count                              : 18949
Stream size                              : 847957
Stream size                              : 828 KiB (0%)
Stream size                              : 828 KiB
Stream size                              : 828 KiB
Stream size                              : 828 KiB
Stream size                              : 828.1 KiB
Stream size                              : 828 KiB (0%)
Proportion of this stream                : 0.00024
HeaderSize                               : 28
DataSize                                 : 3570305806
FooterSize                               : 303946
IsStreamable                             : No
Encoded date                             : UTC 2019-04-17 13:57:09
Tagged date                              : UTC 2019-04-17 14:07:41
File creation date                       : UTC 2019-04-21 09:30:00.619
File creation date (local)               : 2019-04-21 02:30:00.619
File last modification date              : UTC 2019-04-17 13:57:09.000
File last modification date (local)      : 2019-04-17 06:57:09.000
Writing library                          : Apple QuickTime
Writing library                          : Apple QuickTime
Encoded_Library_Name                     : Apple QuickTime
com.apple.quicktime.make                 : Apple
com.apple.quicktime.model                : iPhone XR
com.apple.quicktime.software             : 12.2
com.apple.quicktime.creationdate         : 2019-04-17T09:57:09-0400

Video
Count                                    : 348
Count of stream of this kind             : 1
Kind of stream                           : Video
Kind of stream                           : Video
Stream identifier                        : 0
StreamOrder                              : 0
ID                                       : 1
ID                                       : 1
Format                                   : AVC
Format                                   : AVC
Format/Info                              : Advanced Video Codec
Format/Url                               : http://developers.videolan.org/x264.html
Commercial name                          : AVC
Format profile                           : High@L5.1
Format settings                          : CABAC / 1 Ref Frames
Format settings, CABAC                   : Yes
Format settings, CABAC                   : Yes
Format settings, RefFrames               : 1
Format settings, RefFrames               : 1 frame
Format settings, GOP                     : M=1, N=15
Internet media type                      : video/H264
Codec ID                                 : avc1
Codec ID/Info                            : Advanced Video Coding
Duration                                 : 632192
Duration                                 : 10 min 32 s
Duration                                 : 10 min 32 s 192 ms
Duration                                 : 10 min 32 s
Duration                                 : 00:10:32.192
Duration                                 : 00:10:32;07
Duration                                 : 00:10:32.192 (00:10:32;07)
Bit rate                                 : 44986169
Bit rate                                 : 45.0 Mb/s
Width                                    : 3840
Width                                    : 3 840 pixels
Height                                   : 2160
Height                                   : 2 160 pixels
Sampled_Width                            : 3840
Sampled_Height                           : 2160
Pixel aspect ratio                       : 1.000
Display aspect ratio                     : 1.778
Display aspect ratio                     : 16:9
Rotation                                 : 0.000
Frame rate mode                          : VFR
Frame rate mode                          : Variable
Frame rate                               : 29.970
Frame rate                               : 29.970 (29970/1000) FPS
FrameRate_Num                            : 29970
FrameRate_Den                            : 1000
Minimum frame rate                       : 28.571
Minimum frame rate                       : 28.571 FPS
Maximum frame rate                       : 30.000
Maximum frame rate                       : 30.000 FPS
Frame count                              : 18949
Color space                              : YUV
Chroma subsampling                       : 4:2:0
Chroma subsampling                       : 4:2:0
Bit depth                                : 8
Bit depth                                : 8 bits
Scan type                                : Progressive
Scan type                                : Progressive
Bits/(Pixel*Frame)                       : 0.181
Stream size                              : 3555400909
Stream size                              : 3.31 GiB (100%)
Stream size                              : 3 GiB
Stream size                              : 3.3 GiB
Stream size                              : 3.31 GiB
Stream size                              : 3.311 GiB
Stream size                              : 3.31 GiB (100%)
Proportion of this stream                : 0.99574
Title                                    : Core Media Video
Encoded date                             : UTC 2019-04-17 13:57:09
Tagged date                              : UTC 2019-04-17 14:07:41
Color range                              : Limited
colour_description_present               : Yes
Color primaries                          : BT.709
Transfer characteristics                 : BT.709
Matrix coefficients                      : BT.709
Codec configuration box                  : avcC

Audio
Count                                    : 277
Count of stream of this kind             : 1
Kind of stream                           : Audio
Kind of stream                           : Audio
Stream identifier                        : 0
StreamOrder                              : 1
ID                                       : 2
ID                                       : 2
Format                                   : AAC
Format                                   : AAC LC
Format/Info                              : Advanced Audio Codec Low Complexity
Commercial name                          : AAC
Format_AdditionalFeatures                : LC
Codec ID                                 : mp4a-40-2
Duration                                 : 632192
Duration                                 : 10 min 32 s
Duration                                 : 10 min 32 s 192 ms
Duration                                 : 10 min 32 s
Duration                                 : 00:10:32.192
Duration                                 : 00:10:33:07
Duration                                 : 00:10:32.192 (00:10:33:07)
Source duration                          : 632256
Source duration                          : 10 min 32 s
Source duration                          : 10 min 32 s 256 ms
Source duration                          : 10 min 32 s
Source duration                          : 00:10:32.256
Bit rate mode                            : VBR
Bit rate mode                            : Variable
Bit rate                                 : 181729
Bit rate                                 : 182 kb/s
Channel(s)                               : 2
Channel(s)                               : 2 channels
Channel positions                        : Front: L R
Channel positions                        : 2/0/0
Channel layout                           : L R
Samples per frame                        : 1024
Sampling rate                            : 44100
Sampling rate                            : 44.1 kHz
Samples count                            : 27879668
Frame rate                               : 43.066
Frame rate                               : 43.066 FPS (1024 SPF)
Frame count                              : 27226
Source frame count                       : 27229
Compression mode                         : Lossy
Compression mode                         : Lossy
Stream size                              : 14360914
Stream size                              : 13.7 MiB (0%)
Stream size                              : 14 MiB
Stream size                              : 14 MiB
Stream size                              : 13.7 MiB
Stream size                              : 13.70 MiB
Stream size                              : 13.7 MiB (0%)
Proportion of this stream                : 0.00402
Source stream size                       : 14362722
Source stream size                       : 13.7 MiB (0%)
Source stream size                       : 14 MiB
Source stream size                       : 14 MiB
Source stream size                       : 13.7 MiB
Source stream size                       : 13.70 MiB
Source stream size                       : 13.7 MiB (0%)
Source_StreamSize_Proportion             : 0.00402
Title                                    : Core Media Audio
Encoded date                             : UTC 2019-04-17 13:57:09
Tagged date                              : UTC 2019-04-17 14:07:41

Other #1
Count                                    : 116
Count of stream of this kind             : 2
Kind of stream                           : Other
Kind of stream                           : Other
Stream identifier                        : 0
Stream identifier                        : 1
Type                                     : meta
Duration                                 : 632192
Duration                                 : 10 min 32 s
Duration                                 : 10 min 32 s 192 ms
Duration                                 : 10 min 32 s
Duration                                 : 00:10:32.192
Duration                                 : 00:10:32.192
Frame count                              : 1454
Bit rate mode                            : VBR

Other #2
Count                                    : 116
Count of stream of this kind             : 2
Kind of stream                           : Other
Kind of stream                           : Other
Stream identifier                        : 1
Stream identifier                        : 2
Type                                     : meta
Duration                                 : 632192
Duration                                 : 10 min 32 s
Duration                                 : 10 min 32 s 192 ms
Duration                                 : 10 min 32 s
Duration                                 : 00:10:32.192
Duration                                 : 00:10:32.192
Frame count                              : 1
Bit rate mode                            : CBR

j-v wrote on 4/21/2019, 3:44 AM

Since I have an AMD dedicated GPU installed, Intel will not let me install the driver for UHD 630. So I have AMD VCE and Mainconcept AVC as render options for the MAGIX AVC/AAC settings.

If you work on a desktop that problem with the Intel GPU is to overcome in 2 ways that work for me since a have the new Nvidia GPU installed.
1. Connect for a moment your monitor on the mainboard connector of the desktop and start first Windows again followed by starting VPro 16.
With me after that the QSV renderoptions appear. After that I could connect my monitor again to the NVidia and that renderoption stayed.
2. If you have more than one used monitor connect the one that you not always use to the mainboards connector followed by the same steps as at 1

met vriendelijke groet
Jan

Camera : Pan X900, GoPro Hero7 Hero Black, Samsung Galaxy A8
Desktop :MB Gigabyte Z390M, W10, i7 9700 4.7Ghz,16 DDR4 GB RAM, Gef. GTX 1660 Ti.
Laptop  :Asus ROG GL753VD, W10 home, version 1903 build 18.362,295 CPU i7 7700HQ, 16 GB RAM, GeF. GTX 1050 (2 GB) + Int. HD Graphics 630(2GB).VP 16,17 and VMS PL 16 are installed
Both Nvidia GPU's have driver version 441.28 Studio Driver, desktop the Studio DHC driver
TV      :LG 4K 55EG960V

Dutch video tutorials for beginners

My slogan is: BE OR BECOME A STEMCELL DONOR !!!

andrew-barbato wrote on 4/21/2019, 4:04 AM

Since I have an AMD dedicated GPU installed, Intel will not let me install the driver for UHD 630. So I have AMD VCE and Mainconcept AVC as render options for the MAGIX AVC/AAC settings.

If you work on a desktop that problem with the Intel GPU is to overcome in 2 ways that work for me since a have the new Nvidia GPU installed.
1. Connect for a moment your monitor on the mainboard connector of the desktop and start first Windows again followed by starting VPro 16.
With me after that the QSV renderoptions appear. After that I could connect my monitor again to the NVidia and that renderoption stayed.
2. If you have more than one used monitor connect the one that you not always use to the mainboards connector followed by the same steps as at 1

My motherboard actually doesn't have a display output on it. Not even VGA. It's an MSI MEG ACE Z390.

gummi-sigmundsson wrote on 4/24/2019, 12:51 AM

I had the same problem few months back and it was driving me insane.

Have you tried changing the dynamic RAM preview amount down to zero? That was the fix for me. Vegas is doing something bizzare with the Dynamic RAM allocation and for all longer projects that I had I got almost always 0byte rendered files.

bitman wrote on 4/24/2019, 1:45 AM

@andrew-barbato I know it is a long shot, but did you already try to manually delete your finished rendered file (0-byte file size) before trying to render again? There is a confirmed bug in Vegas that produces a 0 byte file for a rendered audiofile if that file already existed with the same filename (e.g. due to a previous rendering). I filed a bug report for this, and as far as I remember this is not solved yet, it is a stupid bug already present in a few of the last Vegas builds. The work-around is to delete the result file.

Last changed by bitman on 4/24/2019, 1:46 AM, changed a total of 1 times.

Current system: VP 17 post (build 353), VP16 (suite) build 424, (uninstalled VP 13,14,15), Vegasaur, Magix Video Pro X (VPX11), Corel VS ultimate 2019, a lot of NEWBLUE plugins, Titler Pro 6, Mercalli 4.0, Respeedr, Vasco Da Gamma 12, VASST stuff, Production Assistent pro3, Boris Continuum 2020, Davinci Resolve Studio 16,...

  • OS: Windows 10 Pro 64, version 1903
  • CPU: i9900K stepping R0 (since October 2019), previously, der8auer i7-8700K (advanced edition), default speed (no overclock), Cooler: Noctua NH-D15s
  • RAM: G.Skill Trident Z 3200C14 DDR4 64GB, XMP set to profile 1 in BIOS
  • Videocard: NVIDEA RTX 2080Ti (Founders edition), NVIDEA studio drivers
  • Monitor: LG 38 inch ultra-wide (21x9) - Resolution: 3840x1600
  • C-drive (games & APPS): Samsung NVMe SSD 2TB 960 pro

  • Current Video source work drive: Samsung NVMe SSD 2T 970 EVO plus

  • Mass Data storage & Backup: WD gold 6TB + WD Yellow 4TB

  • MOBO: Gigabyte Z370 Aorus Gaming 7, BIOS F14
  • PS: Corsair HX1200i, Case: Silverstone fortress 2,
  • Misc: Logitech G910, Evoluent Vertical Mouse, shuttlePROv2

 

andrew-barbato wrote on 4/26/2019, 8:52 PM

I had the same problem few months back and it was driving me insane.

Have you tried changing the dynamic RAM preview amount down to zero? That was the fix for me. Vegas is doing something bizzare with the Dynamic RAM allocation and for all longer projects that I had I got almost always 0byte rendered files.

@andrew-barbato I know it is a long shot, but did you already try to manually delete your finished rendered file (0-byte file size) before trying to render again? There is a confirmed bug in Vegas that produces a 0 byte file for a rendered audiofile if that file already existed with the same filename (e.g. due to a previous rendering). I filed a bug report for this, and as far as I remember this is not solved yet, it is a stupid bug already present in a few of the last Vegas builds. The work-around is to delete the result file.

Thank you both for the suggestions. Neither of those things did the trick.

 

What's really strange about this is I actually tried re-encoding the non-working clips into various different formats. It was H.264/MOV originally, and I tried H.264/MP4, MPEG4/MP4, HEVC/MP4 and a few other random ones. Vegas still rejected the clip. I'm not really sure how this is even possible at this point.

 

Meanwhile the metadata-identical working clips can render no problem, even in the same project.

 

I tried putting the working and non-working clips in the same project and rendering a loop region that was over a little of both of them, and it didn't work. But when it's over just the working clip, it works.

john_dennis wrote on 4/26/2019, 10:39 PM

 "A:\Storage\5.1 Vegas\2\TRIAL\2019-04-15 @ 08;15.MOV"

I would not use the @ in the filename if for no other reason than it makes me feel queasy.

Then, there's this.

 

andrew-barbato wrote on 4/28/2019, 6:22 PM

 "A:\Storage\5.1 Vegas\2\TRIAL\2019-04-15 @ 08;15.MOV"

I would not use the @ in the filename if for no other reason than it makes me feel queasy.

Then, there's this.

The @ symbol in file names isn't a problem in Windows. Also, the working clips are titled exactly the same way.