When I add my video to the timeline, only one audio track is imported.

darnell-j wrote on 3/16/2020, 9:04 PM

The Problem.

Only one audio track (specifically the first one) is added to the timeline (there are four total audio tracks that are paired with one video track). I can work around this by importing into an external software (audacity) and exporting the tracks separately and then importing each of them into Vegas. Is there a way to fix this? FYI: The file-type is ".mp4".

Version:

Vegas Pro 17 | Windows 10

PC build/parts:

-Ryzen 2400G

-AMD Radeon rx580

-16GB ram 2400hz

Thank you.

Comments

darnell-j wrote on 3/16/2020, 9:18 PM

Media Info as requested:

General
Complete name                            : C:\Users\****\***\***\2020-03-16 19-04-44.mp4
Format                                   : MPEG-4
Format profile                           : Base Media
Codec ID                                 : isom (isom/iso2/mp41)
File size                                : 6.51 GiB
Duration                                 : 1 h 0 min
Overall bit rate mode                    : Variable
Overall bit rate                         : 15.5 Mb/s
Writing application                      : Lavf58.20.100

Video
ID                                       : 1
Format                                   : HEVC
Format/Info                              : High Efficiency Video Coding
Format profile                           : Main@L4@Main
Codec ID                                 : hev1
Codec ID/Info                            : High Efficiency Video Coding
Duration                                 : 1 h 0 min
Bit rate                                 : 15.0 Mb/s
Width                                    : 1 280 pixels
Height                                   : 720 pixels
Display aspect ratio                     : 16:9
Frame rate mode                          : Constant
Frame rate                               : 60.000 FPS
Standard                                 : Component
Color space                              : YUV
Chroma subsampling                       : 4:2:0
Bit depth                                : 8 bits
Bits/(Pixel*Frame)                       : 0.271
Stream size                              : 6.31 GiB (97%)
Color range                              : Limited
Codec configuration box                  : hvcC

Audio #1
ID                                       : 2
Format                                   : AAC LC
Format/Info                              : Advanced Audio Codec Low Complexity
Codec ID                                 : mp4a-40-2
Duration                                 : 1 h 0 min
Bit rate mode                            : Variable
Bit rate                                 : 156 kb/s
Maximum bit rate                         : 160 kb/s
Channel(s)                               : 2 channels
Channel layout                           : L R
Sampling rate                            : 44.1 kHz
Frame rate                               : 43.066 FPS (1024 SPF)
Compression mode                         : Lossy
Stream size                              : 67.4 MiB (1%)
Title                                    : Desktop Audio
Default                                  : Yes
Alternate group                          : 1

Audio #2
ID                                       : 3
Format                                   : AAC LC
Format/Info                              : Advanced Audio Codec Low Complexity
Codec ID                                 : mp4a-40-2
Duration                                 : 1 h 0 min
Bit rate mode                            : Constant
Bit rate                                 : 161 kb/s
Channel(s)                               : 2 channels
Channel layout                           : L R
Sampling rate                            : 44.1 kHz
Frame rate                               : 43.066 FPS (1024 SPF)
Compression mode                         : Lossy
Stream size                              : 69.1 MiB (1%)
Title                                    : Headset Mic
Default                                  : No
Alternate group                          : 1

Audio #3
ID                                       : 4
Format                                   : AAC LC
Format/Info                              : Advanced Audio Codec Low Complexity
Codec ID                                 : mp4a-40-2
Duration                                 : 1 h 0 min
Bit rate mode                            : Variable
Bit rate                                 : 2 090 b/s
Maximum bit rate                         : 160 kb/s
Channel(s)                               : 2 channels
Channel layout                           : L R
Sampling rate                            : 44.1 kHz
Frame rate                               : 43.066 FPS (1024 SPF)
Compression mode                         : Lossy
Stream size                              : 922 KiB (0%)
Title                                    : ATR Mic
Default                                  : No
Alternate group                          : 1

Audio #4
ID                                       : 5
Format                                   : AAC LC
Format/Info                              : Advanced Audio Codec Low Complexity
Codec ID                                 : mp4a-40-2
Duration                                 : 1 h 0 min
Bit rate mode                            : Variable
Bit rate                                 : 124 kb/s
Maximum bit rate                         : 160 kb/s
Channel(s)                               : 2 channels
Channel layout                           : L R
Sampling rate                            : 44.1 kHz
Frame rate                               : 43.066 FPS (1024 SPF)
Compression mode                         : Lossy
Stream size                              : 53.5 MiB (1%)
Title                                    : Disord Audio
Default                                  : No
Alternate group                          : 1

 

wwaag wrote on 3/17/2020, 12:41 AM

@darnell-j

AFAIK, you can't do this directly in Vegas. However, you can using the ImportAssist tool in HappyOtterScripts. Here are a couple of screen grabs showing the selection of streams to import and the result of importing 9 audio streams.

More information can be found at https://tools4vegas.com/

 

Grazie wrote on 3/17/2020, 12:45 AM

There’s a Pref for loading as ONE audio track. Maybe this has bearing on the matter?

darnell-j wrote on 3/17/2020, 1:24 AM

Thanks to everyone who helped in bringing a solution. I'll add some other useful links that were also useful(for anyone who may need them in the future).

Demo:https://tools4vegas.com/importassistdemo/

Trial Link:https://tools4vegas.com/trial/