Mark-Linenbroker

Offline, Last login 7/4/2022, Member since 9/27/2021

4 Forum posts
0 Tutorials
14 Comments
3 Thank you
0 Solutions

About me

n.a.

My interests

n.a.

My signature

Windows 11; GPU Nvidia GTX 1070

Most often edit GoPro files 1920x1080. Videos may have up to 9 tracks.

General
Complete name                            : D:\Produce\Backrow.mp4
Format                                   : MPEG-4
Format profile                           : Base Media / Version 2
Codec ID                                 : mp42 (isom/mp42)
File size                                : 153 MiB
Duration                                 : 1 min 47 s
Overall bit rate mode                    : Variable
Overall bit rate                         : 12.0 Mb/s
Encoded date                             : UTC 2022-06-06 00:37:55
Tagged date                              : UTC 2022-06-06 00:37:55

Video
ID                                       : 1
Format                                   : HEVC
Format/Info                              : High Efficiency Video Coding
Format profile                           : Main@L4@High
Codec ID                                 : hvc1
Codec ID/Info                            : High Efficiency Video Coding
Duration                                 : 1 min 47 s
Bit rate                                 : 11.8 Mb/s
Width                                    : 1 920 pixels
Height                                   : 1 080 pixels
Display aspect ratio                     : 16:9
Frame rate mode                          : Constant
Frame rate                               : 29.970 (30000/1001) FPS
Color space                              : YUV
Chroma subsampling                       : 4:2:0
Bit depth                                : 8 bits
Bits/(Pixel*Frame)                       : 0.190
Stream size                              : 151 MiB (98%)
Language                                 : English
Encoded date                             : UTC 2022-06-06 00:38:00
Tagged date                              : UTC 2022-06-06 00:38:00
Color range                              : Limited
Codec configuration box                  : hvcC

Audio
ID                                       : 2
Format                                   : AAC LC
Format/Info                              : Advanced Audio Codec Low Complexity
Codec ID                                 : mp4a-40-2
Duration                                 : 1 min 47 s
Bit rate mode                            : Variable
Bit rate                                 : 192 kb/s
Maximum bit rate                         : 448 kb/s
Channel(s)                               : 2 channels
Channel layout                           : L R
Sampling rate                            : 48.0 kHz
Frame rate                               : 46.875 FPS (1024 SPF)
Compression mode                         : Lossy
Stream size                              : 2.42 MiB (2%)
Language                                 : English
Encoded date                             : UTC 2022-06-06 00:38:00
Tagged date                              : UTC 2022-06-06 00:38:00