MXF rendering problem picture is sqeezed

miroslav-h wrote on 3/14/2023, 3:01 AM

Hi guys,

 

please my VP20 suddenly started to squeez the picturewhen rendering to .mxf format. Other formats are ok. My project is 3840x1620. Yesterday was all ok but now the picture starts to be weird when I click to render to mxf. See the pics. The 1.st is before rendering a the 2.nd when I start render. Do you please know where is the problem?

Thanks a lot

Miro

Comments

Yelandkeil wrote on 3/14/2023, 4:36 AM

Membership since 2016...Brille, Fielmann.

ASUS TUF Gaming B550plus BIOS3202: 
*Thermaltake TOUGHPOWER GF1 850W 
*ADATA XPG GAMMIX S11PRO 512GB->sys & 2TB->data 
*G.SKILL F4-3200C16Q-64GFX 
*AMD Ryzen9 5950x + LiquidFreezer II-240 
*XFX Speedster-MERC319-RX6900XT <-Adrenalin 24.5.1
Samsung 2xLU28R55 300CD/m²HDR10 (peak 1499nits) ->2xDPorts
ROCCAT Kave 5.1Headset/Mic ->Analog
LG DSP7 Surround 5.1Soundbar ->TOSLINK (AAFOptimusPack 6.0.9403.1)

GH5sHLG_4k30p: AWB, Exposure=Manual, Shutter50, ISO320
ProtuneFlat_2.7k60pLinear: WB5500K, Shutter120, ISO400

Windows11Pro 23H2-22631.3737
Direct3D® DriverVersion 9.17.11.0260 (API=12.2)

Vegaspro21 + Handbrake/XMediaRecode + DVDArchi7 
Acidpro10 + SoundForgepro14.0.065 + SpectraLayerspro7 

K-LitecodecPack17.8.0 (MPC Video Renderer for HDR10-Videoplayback) 

EricLNZ wrote on 3/14/2023, 4:38 AM

You are rendering to an image size of 3840x2160 instead of 3840x1620.

miroslav-h wrote on 3/14/2023, 4:48 AM

You are rendering to an image size of 3840x2160 instead of 3840x1620.

Yes but it is not possible to change setting in mfx template. Where can I change it to 1620? In previous project the same render setting and all was ok (black strips).

miroslav-h wrote on 3/14/2023, 4:54 AM

Membership since 2016...Brille, Fielmann.

It changes automaticaly from 3840x1620 to 3840x2160 when I start rendering to .mxf template. I have no idea how to change setting to 3840x1620 in MXF template as there is not possible to change presset manualy.

Yelandkeil wrote on 3/14/2023, 6:54 AM

Reason that you must render it in MXF container?

ASUS TUF Gaming B550plus BIOS3202: 
*Thermaltake TOUGHPOWER GF1 850W 
*ADATA XPG GAMMIX S11PRO 512GB->sys & 2TB->data 
*G.SKILL F4-3200C16Q-64GFX 
*AMD Ryzen9 5950x + LiquidFreezer II-240 
*XFX Speedster-MERC319-RX6900XT <-Adrenalin 24.5.1
Samsung 2xLU28R55 300CD/m²HDR10 (peak 1499nits) ->2xDPorts
ROCCAT Kave 5.1Headset/Mic ->Analog
LG DSP7 Surround 5.1Soundbar ->TOSLINK (AAFOptimusPack 6.0.9403.1)

GH5sHLG_4k30p: AWB, Exposure=Manual, Shutter50, ISO320
ProtuneFlat_2.7k60pLinear: WB5500K, Shutter120, ISO400

Windows11Pro 23H2-22631.3737
Direct3D® DriverVersion 9.17.11.0260 (API=12.2)

Vegaspro21 + Handbrake/XMediaRecode + DVDArchi7 
Acidpro10 + SoundForgepro14.0.065 + SpectraLayerspro7 

K-LitecodecPack17.8.0 (MPC Video Renderer for HDR10-Videoplayback) 

miroslav-h wrote on 3/14/2023, 7:15 AM

Reason that you must render it in MXF container?

I think that it shold be the highest quality (except of Voukoder and rendering to Proress), I need to prerender some part of my project and insert it to another project. What do you think?

 

All the best

Miro

Yelandkeil wrote on 3/14/2023, 8:17 AM

Forget your "highest quality", you are looking for an intermediate format with better quality.

Do you know where to compare it? Here:

Video
ID                          : 1
Format                      : ProRes
Format version              : Version 0
Format profile              : 422 LT
Codec ID                    : apcs
Duration                    : 18 s 535 ms
Bit rate mode               : Variable
Bit rate                    : 434 Mb/s
Width                       : 3 840 pixels
Height                      : 1 620 pixels
Display aspect ratio        : 2.40:1
Frame rate mode             : Constant
Frame rate                  : 59.940 (60000/1001) FPS
Color space                 : YUV
Chroma subsampling          : 4:2:2
Scan type                   : Progressive
Bits/(Pixel*Frame)          : 1.164
Stream size                 : 959 MiB (100%)
Writing library             : magx
Language                    : English
Encoded date                : UTC 2023-03-14 13:08:20
Tagged date                 : UTC 2023-03-14 13:08:20
Color primaries             : BT.709
Transfer characteristics    : BT.709
Matrix coefficients         : BT.709

ideo
ID                          : 2
Format                      : AVC
Format/Info                 : Advanced Video Codec
Format profile              : High 4:2:2 Intra@L5.2
Format settings, CABAC      : No
Format settings, GOP        : N=1
Format settings, wrapping m : Frame
Codec ID                    : 0D01030102106001-0401020201323001
Duration                    : 18 s 535 ms
Bit rate                    : 545 Mb/s
Maximum bit rate            : 600 Mb/s
Width                       : 3 840 pixels
Height                      : 2 160 pixels
Display aspect ratio        : 16:9
Frame rate                  : 59.940 (60000/1001) FPS
Standard                    : Component
Color space                 : YUV
Chroma subsampling          : 4:2:2
Bit depth                   : 10 bits
Scan type                   : Progressive
Bits/(Pixel*Frame)          : 1.096
Stream size                 : 1.18 GiB (100%)
Color range                 : Limited
Color primaries             : BT.709
Transfer characteristics    : BT.709
Matrix coefficients         : BT.709
Delay_SDTI                  : 65700

 

1st one is ProRes-422LT

2nd one is Sony MXF AVC-Intra

Last changed by Yelandkeil on 3/14/2023, 8:22 AM, changed a total of 2 times.

ASUS TUF Gaming B550plus BIOS3202: 
*Thermaltake TOUGHPOWER GF1 850W 
*ADATA XPG GAMMIX S11PRO 512GB->sys & 2TB->data 
*G.SKILL F4-3200C16Q-64GFX 
*AMD Ryzen9 5950x + LiquidFreezer II-240 
*XFX Speedster-MERC319-RX6900XT <-Adrenalin 24.5.1
Samsung 2xLU28R55 300CD/m²HDR10 (peak 1499nits) ->2xDPorts
ROCCAT Kave 5.1Headset/Mic ->Analog
LG DSP7 Surround 5.1Soundbar ->TOSLINK (AAFOptimusPack 6.0.9403.1)

GH5sHLG_4k30p: AWB, Exposure=Manual, Shutter50, ISO320
ProtuneFlat_2.7k60pLinear: WB5500K, Shutter120, ISO400

Windows11Pro 23H2-22631.3737
Direct3D® DriverVersion 9.17.11.0260 (API=12.2)

Vegaspro21 + Handbrake/XMediaRecode + DVDArchi7 
Acidpro10 + SoundForgepro14.0.065 + SpectraLayerspro7 

K-LitecodecPack17.8.0 (MPC Video Renderer for HDR10-Videoplayback) 

Yelandkeil wrote on 3/14/2023, 8:34 AM

ASUS TUF Gaming B550plus BIOS3202: 
*Thermaltake TOUGHPOWER GF1 850W 
*ADATA XPG GAMMIX S11PRO 512GB->sys & 2TB->data 
*G.SKILL F4-3200C16Q-64GFX 
*AMD Ryzen9 5950x + LiquidFreezer II-240 
*XFX Speedster-MERC319-RX6900XT <-Adrenalin 24.5.1
Samsung 2xLU28R55 300CD/m²HDR10 (peak 1499nits) ->2xDPorts
ROCCAT Kave 5.1Headset/Mic ->Analog
LG DSP7 Surround 5.1Soundbar ->TOSLINK (AAFOptimusPack 6.0.9403.1)

GH5sHLG_4k30p: AWB, Exposure=Manual, Shutter50, ISO320
ProtuneFlat_2.7k60pLinear: WB5500K, Shutter120, ISO400

Windows11Pro 23H2-22631.3737
Direct3D® DriverVersion 9.17.11.0260 (API=12.2)

Vegaspro21 + Handbrake/XMediaRecode + DVDArchi7 
Acidpro10 + SoundForgepro14.0.065 + SpectraLayerspro7 

K-LitecodecPack17.8.0 (MPC Video Renderer for HDR10-Videoplayback) 

miroslav-h wrote on 3/14/2023, 9:17 AM

I will render in ProRes, thank you :-)