Yet another .mov question ?

SWS wrote on 8/15/2022, 1:23 PM

Downloaded a free .mov clip from "Motion Array" and although my drone .mov footage and my JVC L-300 .mov clips play fine in V19, this clip and a few others I got from from the "Videoblocks" website won't play in V19. Some .mov's that I downloaded have played (see below) but most have not. I simply get an error message saying the clip could not be opened.

On another computer I have V13 and V14 and the clip plays fine. I have the old "Quicktime" running on both machines and they will all play fine in the Quicktime player and on an old copy of Adobe CS6 Premiere though. as well.

Is there a setting I'm missing ?

Here's a clip that will not play on V19 in DropBox...https://www.dropbox.com/sh/rltmgt4v501nmev/AACmKn1YFMpQIYXWywtGRl84a?dl=0

This is the info on the clip that will not play in V19...

Complete name                            : C:\Users\mark\Downloads\MOTION ARRAY\Freelight-leak-footage-220.mov
Format                                   : MPEG-4
Format profile                           : QuickTime
Codec ID                                 : qt   2005.03 (qt  )
File size                                : 13.2 MiB
Duration                                 : 2 s 267 ms
Overall bit rate mode                    : Variable
Overall bit rate                         : 48.9 Mb/s
Encoded date                             : UTC 2012-04-01 15:14:33
Tagged date                              : UTC 2013-01-20 04:54:56
Writing library                          : Apple QuickTime

Video
ID                                       : 1
Format                                   : JPEG
Codec ID                                 : jpeg
Duration                                 : 2 s 267 ms
Bit rate mode                            : Variable
Bit rate                                 : 48.4 Mb/s
Width                                    : 1 920 pixels
Height                                   : 1 080 pixels
Display aspect ratio                     : 16:9
Frame rate mode                          : Constant
Frame rate                               : 30.000 FPS
Color space                              : YUV
Chroma subsampling                       : 4:2:2
Bit depth                                : 8 bits
Compression mode                         : Lossy
Bits/(Pixel*Frame)                       : 0.779
Stream size                              : 13.1 MiB (99%)
Language                                 : English
Encoded date                             : UTC 2012-04-01 15:14:33
Tagged date                              : UTC 2012-04-01 15:21:42

 

Now this is an .mov that played fine in V19...

Complete name                            : H:\MEDIA\VIDEOBLOCKS\female-photographer-checking-film-strips-at-photo-studio-4k-SBV-346584163-4K.mov
Format                                   : MPEG-4
Format profile                           : QuickTime
Codec ID                                 : qt   2005.03 (qt  )
File size                                : 1.63 GiB
Duration                                 : 13 s 625 ms
Overall bit rate mode                    : Variable
Overall bit rate                         : 1 025 Mb/s
Encoded date                             : UTC 2018-07-20 22:51:03
Tagged date                              : UTC 2018-07-20 22:14:20
Writing library                          : Apple QuickTime
TIM                                      : 00:00:00:00
TSC                                      : 24
TSZ                                      : 1Video
ID                                       : 1
Format                                   : JPEG
Codec ID                                 : jpeg
Duration                                 : 13 s 625 ms
Bit rate mode                            : Variable
Bit rate                                 : 1 025 Mb/s
Width                                    : 4 096 pixels
Height                                   : 2 160 pixels
Display aspect ratio                     : 1.896
Frame rate mode                          : Constant
Frame rate                               : 24.000 FPS
Color space                              : YUV
Chroma subsampling                       : 4:2:2
Bit depth                                : 8 bits
Compression mode                         : Lossy
Bits/(Pixel*Frame)                       : 4.828
Stream size                              : 1.63 GiB (100%)
Language                                 : English
Encoded date                             : UTC 2018-07-20 22:51:03
Tagged date                              : UTC 2018-07-20 23:14:19
Color primaries                          : BT.601 NTSC
Transfer characteristics                 : BT.709
Matrix coefficients                      : BT.601
Gamma                                    : 2.222Other
ID                                       : 2
Type                                     : Time code
Format                                   : QuickTime TC
Duration                                 : 13 s 625 ms
Frame rate                               : 24.000 FPS
Time code of first frame                 : 00:00:00:00
Time code of last frame                  : 00:00:13:14
Time code, striped                       : Yes
Language                                 : English
Encoded date                             : UTC 2018-07-20 23:14:19
Tagged date                              : UTC 2018-07-20 23:14:19

 

BOXX/APEXX S4
Motherboard: ASRock TAICHI
Intel Z690 Chipset Cores:16
CPU: Intel Core i9 12900KS Enhanced Performance Processor
GPU: NVIDIA GeForce RTX 3090
RAM: 64GB DDR5-4800 MHz (2 - 32GB DIMMS
Disks: 2.0TB SSD NVMe/PCIe 3.0/4.0 M.2 Drive
SSD: (4) 4TB
O/S: Microsoft Windows 10 Professional 64-bit SP1

Comments

j-v wrote on 8/15/2022, 1:50 PM

Is there a setting I'm missing ?

I think so. Did you allow QT in Deprecates Features?
With me it plays well in VP19 and VP20


met vriendelijke groet
Marten

Camera : Pan X900, GoPro Hero7 Hero Black, DJI Osmo Pocket, Samsung Galaxy A8
Desktop :MB Gigabyte Z390M, W11 home version 23H2, i7 9700 4.7Ghz,16 DDR4 GB RAM, Gef. GTX 1660 Ti with driver
522.22 Studiodriver and Intel HD graphics 630 with driver 31.0.101.2127
Laptop  :Asus ROG Str G712L, W11 home version 23H2, CPU i7-10875H, 16 GB RAM, NVIDIA GeForce RTX 2070 with Studiodriver 522.22 and Intel UHD Graphics 630 with driver 31.0.101.2127
Vegas software: VP 10 to 21 and VMS(pl) 10,12 to 17.
TV      :LG 4K 55EG960V

My slogan is: BE OR BECOME A STEM CELL DONOR!!! (because it saved my life in 2016)

 

SWS wrote on 8/15/2022, 2:18 PM

That's great! Now where is Deprecates Features?

BOXX/APEXX S4
Motherboard: ASRock TAICHI
Intel Z690 Chipset Cores:16
CPU: Intel Core i9 12900KS Enhanced Performance Processor
GPU: NVIDIA GeForce RTX 3090
RAM: 64GB DDR5-4800 MHz (2 - 32GB DIMMS
Disks: 2.0TB SSD NVMe/PCIe 3.0/4.0 M.2 Drive
SSD: (4) 4TB
O/S: Microsoft Windows 10 Professional 64-bit SP1

j-v wrote on 8/15/2022, 2:25 PM

met vriendelijke groet
Marten

Camera : Pan X900, GoPro Hero7 Hero Black, DJI Osmo Pocket, Samsung Galaxy A8
Desktop :MB Gigabyte Z390M, W11 home version 23H2, i7 9700 4.7Ghz,16 DDR4 GB RAM, Gef. GTX 1660 Ti with driver
522.22 Studiodriver and Intel HD graphics 630 with driver 31.0.101.2127
Laptop  :Asus ROG Str G712L, W11 home version 23H2, CPU i7-10875H, 16 GB RAM, NVIDIA GeForce RTX 2070 with Studiodriver 522.22 and Intel UHD Graphics 630 with driver 31.0.101.2127
Vegas software: VP 10 to 21 and VMS(pl) 10,12 to 17.
TV      :LG 4K 55EG960V

My slogan is: BE OR BECOME A STEM CELL DONOR!!! (because it saved my life in 2016)

 

fr0sty wrote on 8/15/2022, 2:26 PM

In preferences. You may have to install quicktime as well... But keep in mind, it is no longer supported, and could pose a security threat if anyone has exploited vulnerabilities in it since it stopped being supported by Apple (which is why it is deprecated). No issues reported yet on that front, however.

Systems:

Desktop

AMD Ryzen 7 1800x 8 core 16 thread at stock speed

64GB 3000mhz DDR4

Geforce RTX 3090

Windows 10

Laptop:

ASUS Zenbook Pro Duo 32GB (9980HK CPU, RTX 2060 GPU, dual 4K touch screens, main one OLED HDR)

SWS wrote on 8/15/2022, 2:27 PM

Thanks all! Need new glasses I think!!!😎

BOXX/APEXX S4
Motherboard: ASRock TAICHI
Intel Z690 Chipset Cores:16
CPU: Intel Core i9 12900KS Enhanced Performance Processor
GPU: NVIDIA GeForce RTX 3090
RAM: 64GB DDR5-4800 MHz (2 - 32GB DIMMS
Disks: 2.0TB SSD NVMe/PCIe 3.0/4.0 M.2 Drive
SSD: (4) 4TB
O/S: Microsoft Windows 10 Professional 64-bit SP1