Comments

andrew-t wrote on 10/8/2019, 9:26 AM

he ris the mediainfo

General
Complete name                            : C:\Users\Andrew\Desktop\shit\1.mp4
Format                                   : MPEG-4
Format profile                           : Base Media / Version 2
Codec ID                                 : mp42 (isom/iso2/mp41)
File size                                : 31.0 MiB
Duration                                 : 3 min 40 s
Overall bit rate mode                    : Constant
Overall bit rate                         : 1 180 kb/s
Encoded date                             : UTC 2019-10-07 17:51:46
Tagged date                              : UTC 2019-10-07 17:51:46
Writing application                      : HandBrake 1.2.2 2019022300

Video
ID                                       : 1
Format                                   : MPEG-4 Visual
Format profile                           : Simple@L1
Format settings, BVOP                    : No
Format settings, QPel                    : No
Format settings, GMC                     : No warppoints
Format settings, Matrix                  : Default (H.263)
Codec ID                                 : mp4v-20
Duration                                 : 3 min 40 s
Bit rate mode                            : Constant
Bit rate                                 : 1 014 kb/s
Width                                    : 1 920 pixels
Height                                   : 1 080 pixels
Display aspect ratio                     : 16:9
Frame rate mode                          : Variable
Frame rate                               : 23.361 FPS
Minimum frame rate                       : 16.688 FPS
Maximum frame rate                       : 25.000 FPS
Color space                              : YUV
Chroma subsampling                       : 4:2:0
Bit depth                                : 8 bits
Scan type                                : Progressive
Compression mode                         : Lossy
Bits/(Pixel*Frame)                       : 0.021
Stream size                              : 26.6 MiB (86%)
Writing library                          : Lavc58.35.100
Encoded date                             : UTC 2019-10-07 17:51:46
Tagged date                              : UTC 2019-10-07 17:51:46

Audio
ID                                       : 2
Format                                   : AAC LC
Format/Info                              : Advanced Audio Codec Low Complexity
Codec ID                                 : mp4a-40-2
Duration                                 : 3 min 40 s
Bit rate mode                            : Constant
Bit rate                                 : 161 kb/s
Channel(s)                               : 2 channels
Channel layout                           : L R
Sampling rate                            : 48.0 kHz
Frame rate                               : 46.875 FPS (1024 SPF)
Compression mode                         : Lossy
Stream size                              : 4.22 MiB (14%)
Title                                    : Stereo
Language                                 : English
Default                                  : Yes
Alternate group                          : 1
Encoded date                             : UTC 2019-10-07 17:51:46
Tagged date                              : UTC 2019-10-07 17:51:46
 

 

j-v wrote on 10/8/2019, 11:51 AM

The rendertemplate that is used is not the right one.
To judge what is possible for you you have to give here more info about your used hardware and the movie studio version and buildnr. that is used.

See here about the possibilities how to give that info under B and C ( info is not only for Vegas Pro):
https://www.vegascreativesoftware.info/us/forum/important-information-required-to-help-you--110457/

met vriendelijke groet
Jan

Camera : Pan X900, GoPro Hero7 Hero Black, Samsung Galaxy A8
Desktop :MB Gigabyte Z390M, W10, i7 7900 4.7Ghz,16 DDR4 GB RAM, Gef. GTX 1660 Ti.
Laptop  :Asus ROG GL753VD, W10 home, version 1903 build 18.362,295 CPU i7 7700HQ, 16 GB RAM, GeF. GTX 1050 (2 GB) + Int. HD Graphics 630(2GB).VP 15,16,17 and VMS PL 15,16 are installed
Both Nvidia GPU's have driver version 431.86 Studio Drivers
TV      :LG 4K 55EG960V

Dutch video tutorials for beginners

My slogan is: BE OR BECOME A STEMCELL DONOR !!!

Steve Grisetti wrote on 10/9/2019, 6:43 AM

Also, which output template did you use? Did you output an MP4? Which player are you playing this video on?

andrew-t wrote on 10/9/2019, 7:19 AM

I found the problem. I rebooted movie studio whilel holding ctrl alt and cleared the cache inside movie studio. Ihad been strugglng with this for 7 days and was going upgrade everything until i found this out. saved sooo much hassle.