Rendering settings

OhMyGosh wrote on 5/16/2019, 11:14 PM

I posted my video specs below. I would like to make some minor changes to my media and be able to render it back to, or as close as possible, it's original self. I need to take it into other programs and I don't want to keep hurting it every time I move it. I'm not sure why it can't be rendered just back to it's original self without all sorts of conversion? Guess maybe that's not possible, but in any case, why can't I find any 1920x1080 60p MPEG4 AVC templates like my media? Most p templates that I find are for 24p. What the heck, am I looking in the wrong places?

PS. With my latest project I'm looking to do it for and burn my first Blu-ray. Up until now I've done nothing but DVD's, so I'm really looking forward to seeing the quality and I don't want to do anything to damage or diminish that. Thanks. Cin

General Complete name                            : C:\Users\Cindy\Desktop\20180905_162654.mp4 Format                                   : MPEG-4 Format profile                           : Base Media / Version 2 Codec ID                                 : mp42 (isom/mp42) File size                                : 19.0 MiB Duration                                 : 5 s 739 ms Overall bit rate                         : 27.8 Mb/s Encoded date                             : UTC 2018-09-05 23:27:02 Tagged date                              : UTC 2018-09-05 23:27:02 xyz                                      : +00.0000+000.0000/ com.android.version                      : 8.1.0

Video ID                                       : 1 Format                                   : AVC Format/Info                              : Advanced Video Codec Format profile                           : High@L4.2 Format settings                          : CABAC / 1 Ref Frames Format settings, CABAC                   : Yes Format settings, Reference frames        : 1 frame Format settings, GOP                     : M=1, N=60 Codec ID                                 : avc1 Codec ID/Info                            : Advanced Video Coding Duration                                 : 5 s 588 ms Bit rate                                 : 28.3 Mb/s Width                                    : 1 920 pixels Height                                   : 1 080 pixels Display aspect ratio                     : 16:9 Frame rate mode                          : Variable Frame rate                               : 59.051 FPS Minimum frame rate                       : 52.204 FPS Maximum frame rate                       : 59.094 FPS Standard                                 : NTSC Color space                              : YUV Chroma subsampling                       : 4:2:0 Bit depth                                : 8 bits Scan type                                : Progressive Bits/(Pixel*Frame)                       : 0.231 Stream size                              : 18.9 MiB (99%) Title                                    : VideoHandle Language                                 : English Encoded date                             : UTC 2018-09-05 23:27:02 Tagged date                              : UTC 2018-09-05 23:27:02 Color range                              : Limited Color primaries                          : BT.709 Transfer characteristics                 : BT.709 Matrix coefficients                      : BT.709 mdhd_Duration                            : 5588 Codec configuration box                  : avcC

Audio ID                                       : 2 Format                                   : AAC LC Format/Info                              : Advanced Audio Codec Low Complexity Codec ID                                 : mp4a-40-2 Duration                                 : 5 s 739 ms Bit rate mode                            : Constant Bit rate                                 : 256 kb/s Channel(s)                               : 2 channels Channel layout                           : L R Sampling rate                            : 48.0 kHz Frame rate                               : 46.875 FPS (1024 SPF) Compression mode                         : Lossy Stream size                              : 179 KiB (1%) Title                                    : SoundHandle Language                                 : English Encoded date                             : UTC 2018-09-05 23:27:02 Tagged date                              : UTC 2018-09-05 23:27:02

 

Comments

3POINT wrote on 5/17/2019, 12:56 AM

I think everything has already been explained in this thread https://www.vegascreativesoftware.info/us/forum/rendering-options--115727/#ca718099.

The same counts for VegasPro. Also VegasPro doesn't like variable Framerate. Beside burning a Blu-ray, the NTSC Standard for Blu-ray is 1080i60 or 1080p24.

 

3POINT, Theo Houben, Vegasuser since version 5

Recware: DJI Osmo Pocket, GoproHero7Black, PanasonicFZ300/HCX909, Sony PXW-X160.

Software:VegasPro16/VegasMovieStudio16/PowerDirector16

Hardware:i7 4770, 16GB, GTX650ti, 1920x1200 display

Playware:Philips 55PFL7108

OhMyGosh wrote on 5/17/2019, 9:38 AM

Thank you 3POINT for the response. I guess my confusion comes from the fact that I always thought Blu-ray was progressive and I can't find any templates that come close to matching my media, they are all interlaced. Thanks. Cin

Blu-ray or Blu-ray Disc (BD) is a digital optical disc data storage format. It was designed to supersede the DVD format, and is capable of storing several hours of video in high-definition (HDTV 720p and 1080p) and ultra high-definition resolution (2160p).

 

Eagle Six wrote on 5/17/2019, 10:10 AM

You should be able to get, in addition to 1080-60i and 1080-24p, 720-60p/24p from a standard Blu-ray player.

Last changed by Eagle Six on 5/17/2019, 10:10 AM, changed a total of 1 times.

System Specs......
Corsair Obsidian Series 450D ATX Mid Tower
Asus X99-A II LGA 2011-v3, Intel X99 SATA 6 Gb/s USB 3.1/3.0 ATX Intel Motherboard
Intel Core i7-6800K 15M Broadwell-E, 6 core 3.4 GHz LGA 2011-v3 (overclocked 20%)
64GB Corsair Vengeance LPX DDR4 3200
Corsair Hydro Series H110i GTX 280mm Extreme Performance Liquid CPU Cooler
MSI Radeon R9 390 DirectX 12 8GB Video Card
Corsair RMx Series RM750X 740W 80 Plus Gold power pack
Samsung 970 EVO NVMe M.2 boot drive
Corsair Neutron XT 2.5 480GB SATA III SSD - video work drive
Western Digitial 1TB 7200 RPM SATA - video work drive
Western Digital Black 6TB 7200 RPM SATA 6Bb/s 128MB Cache 3.5 data drive

Bluray Disc burner drive
2x 1080p monitors
Microsoft Window 10 Pro
DaVinci Resolve Studio 16 pb2
SVP13, MVP15, MVP16, SMSP13, MVMS15, MVMSP15, MVMSP16