Vegas 21, timecode isn't working

Shaun_K wrote on 8/30/2023, 4:25 AM

Version 21 doesn't appear to be reading the timecodes. I have attached two images, the video file is the same, you can see that VP 20 reads the timecode fine, but VP 21 isn't reading it. This completely breaks my workflow, so any help with this would be appreciated.

I have already tried to get assistance through the Vegas Pro 21 Thread (https://www.vegascreativesoftware.info/us/forum/vegas-pro-21-build-108-general-discussion--142065/?page=4#ca888956), I also sent an email to support....where I got a response saying to click on "Yes" or "No" to confirm whether I needed further assistance....there was no link, no button. The support process here is frustrating to say the least.

 

 

Below is the Mediainfo for the file mentioned:
 

General
Complete name                            : P1001780.MOV
Format                                   : MPEG-4
Format profile                           : QuickTime
Codec ID                                 : qt   0000.02 (qt  )
File size                                : 69.8 MiB
Duration                                 : 8 s 640 ms
Overall bit rate                         : 67.7 Mb/s
Frame rate                               : 25.000 FPS
Writing application                      : Lavf59.0.101

Video
ID                                       : 1
Format                                   : HEVC
Format/Info                              : High Efficiency Video Coding
Format profile                           : Main 10@L5.1@High
Codec ID                                 : hvc1
Codec ID/Info                            : High Efficiency Video Coding
Duration                                 : 8 s 640 ms
Bit rate                                 : 67.6 Mb/s
Width                                    : 3 840 pixels
Height                                   : 2 160 pixels
Display aspect ratio                     : 16:9
Frame rate mode                          : Constant
Frame rate                               : 25.000 FPS
Color space                              : YUV
Chroma subsampling                       : 4:2:0
Bit depth                                : 10 bits
Bits/(Pixel*Frame)                       : 0.326
Stream size                              : 69.7 MiB (100%)
Color range                              : Full
Color primaries                          : BT.709
Transfer characteristics                 : BT.709
Matrix coefficients                      : BT.709
Codec configuration box                  : hvcC

Audio
ID                                       : 2
Format                                   : AAC LC
Format/Info                              : Advanced Audio Codec Low Complexity
Codec ID                                 : mp4a-40-2
Duration                                 : 8 s 640 ms
Source duration                          : 8 s 661 ms
Bit rate mode                            : Constant
Bit rate                                 : 70.1 kb/s
Channel(s)                               : 1 channel
Channel layout                           : C
ChannelLayout_Original                   : M
Sampling rate                            : 48.0 kHz
Frame rate                               : 46.875 FPS (1024 SPF)
Compression mode                         : Lossy
Stream size                              : 73.9 KiB (0%)
Source stream size                       : 74.1 KiB (0%)
Default                                  : Yes
Alternate group                          : 1
mdhd_Duration                            : 8640

Other
ID                                       : 3
Type                                     : Time code
Format                                   : QuickTime TC
Duration                                 : 8 s 640 ms
Frame rate                               : 25.000 FPS
Time code of first frame                 : 13:44:35:15
Time code of last frame                  : 13:44:44:05
Time code, stripped                      : Yes
Language                                 : English
Default                                  : No

 

Comments

RogerS wrote on 8/30/2023, 8:25 AM

Do you have a screenshot of that "yes" "no" message we could see (feel free to redact any personal info)?

Custom PC (2022) Intel i5-13600K with UHD 770 iGPU with latest driver, MSI z690 Tomahawk motherboard, 64GB Corsair DDR5 5200 ram, NVIDIA 2080 Super (8GB) with latest studio driver, 2TB Hynix P41 SSD, Windows 11 Pro 64 bit

Dell XPS 15 laptop (2017) 32GB ram, NVIDIA 1050 (4GB) with latest studio driver, Intel i7-7700HQ with Intel 630 iGPU (latest available driver), dual internal SSD (1TB; 1TB), Windows 10 64 bit

VEGAS Pro 19.651
VEGAS Pro 20.411
VEGAS Pro 21.208

Try the
VEGAS 4K "sample project" benchmark: https://forms.gle/ypyrrbUghEiaf2aC7
VEGAS Pro 20 "Ad" benchmark: https://forms.gle/eErJTR87K2bbJc4Q7

Shaun_K wrote on 8/30/2023, 8:30 AM

Do you have a screenshot of that "yes" "no" message we could see (feel free to redact any personal info)?


jetdv wrote on 8/30/2023, 8:53 AM

Under Options - Preferences - File I/O, are all the settings set the same?

Shaun_K wrote on 8/30/2023, 9:10 AM

Under Options - Preferences - File I/O, are all the settings set the same?

Thank you....that resolved it. "Enable legacy HEVC decoding" was ticked in v.21. Disabling that resolved it.

Shaun_K wrote on 4/15/2024, 4:37 AM

Unfortunately with the new update, timecodes aren't working properly again. And the option for "Enable legacy HEVC decoding" has changed to "Enable experimental HEVC decoding". I tried enabling and disabling this option, didn't make a difference.

Shaun_K wrote on 4/15/2024, 7:05 AM

These video files, shot on the same camera, one after the other....VP21 reads the timecode fine from two, but not of the rest.


Here is mediainfo for the video that VP21 identifies the timecode as 17:46:03:17 (uses this exact same timecode for a couple of the video files):

General

General
Complete name                            : Video\PGH63018.MOV
Format                                   : MPEG-4
Format profile                           : QuickTime
Codec ID                                 : qt   2011.07 (qt  /pana)
File size                                : 8.05 GiB
Duration                                 : 7 min 28 s
Overall bit rate mode                    : Variable
Overall bit rate                         : 154 Mb/s
Frame rate                               : 25.000 FPS
Encoded date                             : 2024-04-14 13:13:18 UTC
Tagged date                              : 2024-04-14 13:13:18 UTC
com.panasonic.Semi-Pro.metadata.xml      : <?xml version="1.0" encoding="UTF-8" standalone="no" ?> / <ClipMain xmlns:xsi="http://www.w3.org/2001/XMLSchema-instance" xmlns="urn:schemas-Professional-Plug-in:Semi-Pro:ClipMetadata:v1.0"> /   <ClipContent> /     <GlobalClipID>060A2B340101010501010D21130000001F77429C0A00000467EA0E9110880050</GlobalClipID> /     <Duration>11208</Duration> /     <EditUnit>1/25</EditUnit> /     <EssenceList> /       <Video> /         <Codec BitRate="150">H264_422_LongGOP</Codec> /         <ActiveLine>2160</ActiveLine> /         <ActivePixel>3840</ActivePixel> /         <BitDepth>10</BitDepth> /         <FrameRate>25p</FrameRate> /         <TimecodeType>NonDrop</TimecodeType> /         <StartTimecode>04:00:36:22</StartTimecode> /       </Video> /       <Audio> /         <Channel>4</Channel> /         <SamplingRate>48000</SamplingRate> /         <BitsPerSample>24</BitsPerSample> /       </Audio> /     </EssenceList> /     <ClipMetadata> /       <Rating>0</Rating> /       <Access> /         <CreationDate>2024-04-14T13:13:18+00:00</CreationDate> /         <LastUpdateDate>2024-04-14T13:13:18+00:00</LastUpdateDate> /       </Access> /       <Device> /         <Manufacturer>Panasonic</Manufacturer> /         <ModelName>DC-GH6</ModelName> /       </Device> /       <Shoot> /         <StartDate>2024-04-14T13:13:18+00:00</StartDate> /       </Shoot> /     </ClipMetadata> /   </ClipContent> /   <UserArea> /     <AcquisitionMetadata xmlns="urn:schemas-Professional-Plug-in:P2:CameraMetadata:v1.2"> /       <CameraUnitMetadata> /         <ISOSensitivity>800</ISOSensitivity> /         <Gamma> /           <CaptureGamma>V-Log</CaptureGamma> /         </Gamma> /         <Gamut> /           <CaptureGamut>V-Gamut</CaptureGamut> /         </Gamut> /       </CameraUnitMetadata> /     </AcquisitionMetadata> /   </UserArea> / </ClipMain>

Video
ID                                       : 1
Format                                   : AVC
Format/Info                              : Advanced Video Codec
Format profile                           : High 4:2:2@L5.1
Format settings                          : CABAC / 1 Ref Frames
Format settings, CABAC                   : Yes
Format settings, Reference frames        : 1 frame
Format settings, GOP                     : M=1, N=12
Format settings, Slice count             : 16 slices per frame
Codec ID                                 : avc1
Codec ID/Info                            : Advanced Video Coding
Duration                                 : 7 min 28 s
Bit rate mode                            : Variable
Bit rate                                 : 149 Mb/s
Maximum bit rate                         : 180 Mb/s
Width                                    : 3 840 pixels
Height                                   : 2 160 pixels
Display aspect ratio                     : 16:9
Frame rate mode                          : Constant
Frame rate                               : 25.000 FPS
Standard                                 : Component
Color space                              : YUV
Chroma subsampling                       : 4:2:2
Bit depth                                : 10 bits
Scan type                                : Progressive
Bits/(Pixel*Frame)                       : 0.719
Stream size                              : 7.78 GiB (97%)
Encoded date                             : 2024-04-14 13:13:18 UTC
Tagged date                              : 2024-04-14 13:13:18 UTC
Color range                              : Full
Color primaries                          : BT.709
Transfer characteristics                 : BT.709
Matrix coefficients                      : BT.709
Codec configuration box                  : avcC

Audio #1
ID                                       : 2
Format                                   : PCM
Format settings                          : Big / Signed
Codec ID                                 : lpcm
Duration                                 : 7 min 28 s
Bit rate mode                            : Constant
Bit rate                                 : 1 152 kb/s
Channel(s)                               : 1 channel
Sampling rate                            : 48.0 kHz
Bit depth                                : 24 bits
Stream size                              : 61.6 MiB (1%)
Encoded date                             : 2024-04-14 13:13:18 UTC
Tagged date                              : 2024-04-14 13:13:18 UTC

Audio #2
ID                                       : 3
Format                                   : PCM
Format settings                          : Big / Signed
Codec ID                                 : lpcm
Duration                                 : 7 min 28 s
Bit rate mode                            : Constant
Bit rate                                 : 1 152 kb/s
Channel(s)                               : 1 channel
Sampling rate                            : 48.0 kHz
Bit depth                                : 24 bits
Stream size                              : 61.6 MiB (1%)
Encoded date                             : 2024-04-14 13:13:18 UTC
Tagged date                              : 2024-04-14 13:13:18 UTC

Audio #3
ID                                       : 4
Format                                   : PCM
Format settings                          : Big / Signed
Codec ID                                 : lpcm
Duration                                 : 7 min 28 s
Bit rate mode                            : Constant
Bit rate                                 : 1 152 kb/s
Channel(s)                               : 1 channel
Sampling rate                            : 48.0 kHz
Bit depth                                : 24 bits
Stream size                              : 61.6 MiB (1%)
Encoded date                             : 2024-04-14 13:13:18 UTC
Tagged date                              : 2024-04-14 13:13:18 UTC

Audio #4
ID                                       : 5
Format                                   : PCM
Format settings                          : Big / Signed
Codec ID                                 : lpcm
Duration                                 : 7 min 28 s
Bit rate mode                            : Constant
Bit rate                                 : 1 152 kb/s
Channel(s)                               : 1 channel
Sampling rate                            : 48.0 kHz
Bit depth                                : 24 bits
Stream size                              : 61.6 MiB (1%)
Encoded date                             : 2024-04-14 13:13:18 UTC
Tagged date                              : 2024-04-14 13:13:18 UTC

Other
ID                                       : 6
Type                                     : Time code
Format                                   : QuickTime TC
Duration                                 : 7 min 28 s
Frame rate                               : 25.000 FPS
Time code of first frame                 : 14:10:52:01
Time code of last frame                  : 14:18:20:08
Time code, stripped                      : Yes
Title                                    : PGH63018
Language                                 : English
Default                                  : No

 

 

This one also reads incorrectly (in VP21 it shows as 00:04:09:21, and a number of other files also show this same incorrect timecode):

General
Complete name                            : Video\PGH63017.MOV
Format                                   : MPEG-4
Format profile                           : QuickTime
Codec ID                                 : qt   2011.07 (qt  /pana)
File size                                : 7.95 GiB
Duration                                 : 7 min 20 s
Overall bit rate mode                    : Variable
Overall bit rate                         : 155 Mb/s
Frame rate                               : 25.000 FPS
Encoded date                             : 2024-04-14 12:36:25 UTC
Tagged date                              : 2024-04-14 12:36:25 UTC
com.panasonic.Semi-Pro.metadata.xml      : <?xml version="1.0" encoding="UTF-8" standalone="no" ?> / <ClipMain xmlns:xsi="http://www.w3.org/2001/XMLSchema-instance" xmlns="urn:schemas-Professional-Plug-in:Semi-Pro:ClipMetadata:v1.0"> /   <ClipContent> /     <GlobalClipID>060A2B340101010501010D21130000001F77429C0A0000045C8A0E9110880050</GlobalClipID> /     <Duration>11016</Duration> /     <EditUnit>1/25</EditUnit> /     <EssenceList> /       <Video> /         <Codec BitRate="150">H264_422_LongGOP</Codec> /         <ActiveLine>2160</ActiveLine> /         <ActivePixel>3840</ActivePixel> /         <BitDepth>10</BitDepth> /         <FrameRate>25p</FrameRate> /         <TimecodeType>NonDrop</TimecodeType> /         <StartTimecode>03:53:16:06</StartTimecode> /       </Video> /       <Audio> /         <Channel>4</Channel> /         <SamplingRate>48000</SamplingRate> /         <BitsPerSample>24</BitsPerSample> /       </Audio> /     </EssenceList> /     <ClipMetadata> /       <Rating>0</Rating> /       <Access> /         <CreationDate>2024-04-14T12:36:25+00:00</CreationDate> /         <LastUpdateDate>2024-04-14T12:36:25+00:00</LastUpdateDate> /       </Access> /       <Device> /         <Manufacturer>Panasonic</Manufacturer> /         <ModelName>DC-GH6</ModelName> /       </Device> /       <Shoot> /         <StartDate>2024-04-14T12:36:25+00:00</StartDate> /       </Shoot> /     </ClipMetadata> /   </ClipContent> /   <UserArea> /     <AcquisitionMetadata xmlns="urn:schemas-Professional-Plug-in:P2:CameraMetadata:v1.2"> /       <CameraUnitMetadata> /         <ISOSensitivity>400</ISOSensitivity> /         <Gamma> /           <CaptureGamma>V-Log</CaptureGamma> /         </Gamma> /         <Gamut> /           <CaptureGamut>V-Gamut</CaptureGamut> /         </Gamut> /       </CameraUnitMetadata> /     </AcquisitionMetadata> /   </UserArea> / </ClipMain>

Video
ID                                       : 1
Format                                   : AVC
Format/Info                              : Advanced Video Codec
Format profile                           : High 4:2:2@L5.1
Format settings                          : CABAC / 1 Ref Frames
Format settings, CABAC                   : Yes
Format settings, Reference frames        : 1 frame
Format settings, GOP                     : M=1, N=12
Format settings, Slice count             : 16 slices per frame
Codec ID                                 : avc1
Codec ID/Info                            : Advanced Video Coding
Duration                                 : 7 min 20 s
Bit rate mode                            : Variable
Bit rate                                 : 150 Mb/s
Maximum bit rate                         : 180 Mb/s
Width                                    : 3 840 pixels
Height                                   : 2 160 pixels
Display aspect ratio                     : 16:9
Frame rate mode                          : Constant
Frame rate                               : 25.000 FPS
Standard                                 : Component
Color space                              : YUV
Chroma subsampling                       : 4:2:2
Bit depth                                : 10 bits
Scan type                                : Progressive
Bits/(Pixel*Frame)                       : 0.723
Stream size                              : 7.69 GiB (97%)
Encoded date                             : 2024-04-14 12:36:25 UTC
Tagged date                              : 2024-04-14 12:36:25 UTC
Color range                              : Full
Color primaries                          : BT.709
Transfer characteristics                 : BT.709
Matrix coefficients                      : BT.709
Codec configuration box                  : avcC

Audio #1
ID                                       : 2
Format                                   : PCM
Format settings                          : Big / Signed
Codec ID                                 : lpcm
Duration                                 : 7 min 20 s
Bit rate mode                            : Constant
Bit rate                                 : 1 152 kb/s
Channel(s)                               : 1 channel
Sampling rate                            : 48.0 kHz
Bit depth                                : 24 bits
Stream size                              : 60.5 MiB (1%)
Encoded date                             : 2024-04-14 12:36:25 UTC
Tagged date                              : 2024-04-14 12:36:25 UTC

Audio #2
ID                                       : 3
Format                                   : PCM
Format settings                          : Big / Signed
Codec ID                                 : lpcm
Duration                                 : 7 min 20 s
Bit rate mode                            : Constant
Bit rate                                 : 1 152 kb/s
Channel(s)                               : 1 channel
Sampling rate                            : 48.0 kHz
Bit depth                                : 24 bits
Stream size                              : 60.5 MiB (1%)
Encoded date                             : 2024-04-14 12:36:25 UTC
Tagged date                              : 2024-04-14 12:36:25 UTC

Audio #3
ID                                       : 4
Format                                   : PCM
Format settings                          : Big / Signed
Codec ID                                 : lpcm
Duration                                 : 7 min 20 s
Bit rate mode                            : Constant
Bit rate                                 : 1 152 kb/s
Channel(s)                               : 1 channel
Sampling rate                            : 48.0 kHz
Bit depth                                : 24 bits
Stream size                              : 60.5 MiB (1%)
Encoded date                             : 2024-04-14 12:36:25 UTC
Tagged date                              : 2024-04-14 12:36:25 UTC

Audio #4
ID                                       : 5
Format                                   : PCM
Format settings                          : Big / Signed
Codec ID                                 : lpcm
Duration                                 : 7 min 20 s
Bit rate mode                            : Constant
Bit rate                                 : 1 152 kb/s
Channel(s)                               : 1 channel
Sampling rate                            : 48.0 kHz
Bit depth                                : 24 bits
Stream size                              : 60.5 MiB (1%)
Encoded date                             : 2024-04-14 12:36:25 UTC
Tagged date                              : 2024-04-14 12:36:25 UTC

Other
ID                                       : 6
Type                                     : Time code
Format                                   : QuickTime TC
Duration                                 : 7 min 20 s
Frame rate                               : 25.000 FPS
Time code of first frame                 : 13:33:59:13
Time code of last frame                  : 13:41:20:03
Time code, stripped                      : Yes
Title                                    : PGH63017
Language                                 : English
Default                                  : No

 

And this one detects and shows correctly in VP21:
 

General
Complete name                            : Video\PGH63019.MOV
Format                                   : MPEG-4
Format profile                           : QuickTime
Codec ID                                 : qt   2011.07 (qt  /pana)
File size                                : 2.04 GiB
Duration                                 : 1 min 52 s
Overall bit rate mode                    : Variable
Overall bit rate                         : 156 Mb/s
Frame rate                               : 25.000 FPS
Encoded date                             : 2024-04-14 13:22:35 UTC
Tagged date                              : 2024-04-14 13:22:35 UTC
com.panasonic.Semi-Pro.metadata.xml      : <?xml version="1.0" encoding="UTF-8" standalone="no" ?> / <ClipMain xmlns:xsi="http://www.w3.org/2001/XMLSchema-instance" xmlns="urn:schemas-Professional-Plug-in:Semi-Pro:ClipMetadata:v1.0"> /   <ClipContent> /     <GlobalClipID>060A2B340101010501010D21130000001F77429C0A0000046BE40E9110880050</GlobalClipID> /     <Duration>2808</Duration> /     <EditUnit>1/25</EditUnit> /     <EssenceList> /       <Video> /         <Codec BitRate="150">H264_422_LongGOP</Codec> /         <ActiveLine>2160</ActiveLine> /         <ActivePixel>3840</ActivePixel> /         <BitDepth>10</BitDepth> /         <FrameRate>25p</FrameRate> /         <TimecodeType>NonDrop</TimecodeType> /         <StartTimecode>04:08:05:05</StartTimecode> /       </Video> /       <Audio> /         <Channel>4</Channel> /         <SamplingRate>48000</SamplingRate> /         <BitsPerSample>24</BitsPerSample> /       </Audio> /     </EssenceList> /     <ClipMetadata> /       <Rating>0</Rating> /       <Access> /         <CreationDate>2024-04-14T13:22:35+00:00</CreationDate> /         <LastUpdateDate>2024-04-14T13:22:35+00:00</LastUpdateDate> /       </Access> /       <Device> /         <Manufacturer>Panasonic</Manufacturer> /         <ModelName>DC-GH6</ModelName> /       </Device> /       <Shoot> /         <StartDate>2024-04-14T13:22:35+00:00</StartDate> /       </Shoot> /     </ClipMetadata> /   </ClipContent> /   <UserArea> /     <AcquisitionMetadata xmlns="urn:schemas-Professional-Plug-in:P2:CameraMetadata:v1.2"> /       <CameraUnitMetadata> /         <ISOSensitivity>800</ISOSensitivity> /         <Gamma> /           <CaptureGamma>V-Log</CaptureGamma> /         </Gamma> /         <Gamut> /           <CaptureGamut>V-Gamut</CaptureGamut> /         </Gamut> /       </CameraUnitMetadata> /     </AcquisitionMetadata> /   </UserArea> / </ClipMain>

Video
ID                                       : 1
Format                                   : AVC
Format/Info                              : Advanced Video Codec
Format profile                           : High 4:2:2@L5.1
Format settings                          : CABAC / 1 Ref Frames
Format settings, CABAC                   : Yes
Format settings, Reference frames        : 1 frame
Format settings, GOP                     : M=1, N=12
Format settings, Slice count             : 16 slices per frame
Codec ID                                 : avc1
Codec ID/Info                            : Advanced Video Coding
Duration                                 : 1 min 52 s
Bit rate mode                            : Variable
Bit rate                                 : 150 Mb/s
Maximum bit rate                         : 180 Mb/s
Width                                    : 3 840 pixels
Height                                   : 2 160 pixels
Display aspect ratio                     : 16:9
Frame rate mode                          : Constant
Frame rate                               : 25.000 FPS
Standard                                 : Component
Color space                              : YUV
Chroma subsampling                       : 4:2:2
Bit depth                                : 10 bits
Scan type                                : Progressive
Bits/(Pixel*Frame)                       : 0.721
Stream size                              : 1.96 GiB (96%)
Encoded date                             : 2024-04-14 13:22:35 UTC
Tagged date                              : 2024-04-14 13:22:35 UTC
Color range                              : Full
Color primaries                          : BT.709
Transfer characteristics                 : BT.709
Matrix coefficients                      : BT.709
Codec configuration box                  : avcC

Audio #1
ID                                       : 2
Format                                   : PCM
Format settings                          : Big / Signed
Codec ID                                 : lpcm
Duration                                 : 1 min 52 s
Bit rate mode                            : Constant
Bit rate                                 : 1 152 kb/s
Channel(s)                               : 1 channel
Sampling rate                            : 48.0 kHz
Bit depth                                : 24 bits
Stream size                              : 15.4 MiB (1%)
Encoded date                             : 2024-04-14 13:22:35 UTC
Tagged date                              : 2024-04-14 13:22:35 UTC

Audio #2
ID                                       : 3
Format                                   : PCM
Format settings                          : Big / Signed
Codec ID                                 : lpcm
Duration                                 : 1 min 52 s
Bit rate mode                            : Constant
Bit rate                                 : 1 152 kb/s
Channel(s)                               : 1 channel
Sampling rate                            : 48.0 kHz
Bit depth                                : 24 bits
Stream size                              : 15.4 MiB (1%)
Encoded date                             : 2024-04-14 13:22:35 UTC
Tagged date                              : 2024-04-14 13:22:35 UTC

Audio #3
ID                                       : 4
Format                                   : PCM
Format settings                          : Big / Signed
Codec ID                                 : lpcm
Duration                                 : 1 min 52 s
Bit rate mode                            : Constant
Bit rate                                 : 1 152 kb/s
Channel(s)                               : 1 channel
Sampling rate                            : 48.0 kHz
Bit depth                                : 24 bits
Stream size                              : 15.4 MiB (1%)
Encoded date                             : 2024-04-14 13:22:35 UTC
Tagged date                              : 2024-04-14 13:22:35 UTC

Audio #4
ID                                       : 5
Format                                   : PCM
Format settings                          : Big / Signed
Codec ID                                 : lpcm
Duration                                 : 1 min 52 s
Bit rate mode                            : Constant
Bit rate                                 : 1 152 kb/s
Channel(s)                               : 1 channel
Sampling rate                            : 48.0 kHz
Bit depth                                : 24 bits
Stream size                              : 15.4 MiB (1%)
Encoded date                             : 2024-04-14 13:22:35 UTC
Tagged date                              : 2024-04-14 13:22:35 UTC

Other
ID                                       : 6
Type                                     : Time code
Format                                   : QuickTime TC
Duration                                 : 1 min 52 s
Frame rate                               : 25.000 FPS
Time code of first frame                 : 14:20:08:24
Time code of last frame                  : 14:22:01:06
Time code, stripped                      : Yes
Title                                    : PGH63019
Language                                 : English
Default                                  : No

 

 

jetdv wrote on 4/15/2024, 8:28 AM
Duration                                 : 7 min 28 s
Bit rate mode                            : Variable

Bit rate                                 : 149 Mb/s
Maximum bit rate                         : 180 Mb/s

You don't want a variable bitrate...

Convert these to a constant bitrate and I'm sure they'll play fine.

See if you can change the camera to record at a constant bitrate.

Shaun_K wrote on 4/15/2024, 8:42 AM

I am not having an issue with playback, or even editing. The issue is that the timecode is not being read correctly.

RogerS wrote on 4/15/2024, 9:14 AM

Anyone, feel free to correct me if I'm confused, but the new "experimental HEVC" is so4compound and the non-experimental one is the new MXCompound.

The non-legacy decoder you were using was so4compound but you're saying as of build 300 it no longer reads timecode?

Until that is fixed I'd prep the timeline with 20 and then open the file in VP 21 to finish it (or just stay in 20, or go back to 21.208).

I saw a developer reply to you about this before so hopefully the issue is in the system.

Custom PC (2022) Intel i5-13600K with UHD 770 iGPU with latest driver, MSI z690 Tomahawk motherboard, 64GB Corsair DDR5 5200 ram, NVIDIA 2080 Super (8GB) with latest studio driver, 2TB Hynix P41 SSD, Windows 11 Pro 64 bit

Dell XPS 15 laptop (2017) 32GB ram, NVIDIA 1050 (4GB) with latest studio driver, Intel i7-7700HQ with Intel 630 iGPU (latest available driver), dual internal SSD (1TB; 1TB), Windows 10 64 bit

VEGAS Pro 19.651
VEGAS Pro 20.411
VEGAS Pro 21.208

Try the
VEGAS 4K "sample project" benchmark: https://forms.gle/ypyrrbUghEiaf2aC7
VEGAS Pro 20 "Ad" benchmark: https://forms.gle/eErJTR87K2bbJc4Q7

Shaun_K wrote on 5/24/2024, 4:40 AM

Unfortunately this is still an issue. Is there any update here? I have tried changing many settings within VP but nothing works. There must be others with the same issue? The whole point of working with timecode is to optimise the editing flow, especially when using multiple cameras, and multiple audio sources.

Wolfgang S. wrote on 5/24/2024, 5:46 AM

The latest update is b315. Have you tried this update?

https://www.vegascreativesoftware.info/us/forum/update-vegas-pro-21-build-315-patch-for-314--145714/

Desktop: PC AMD 3960X, 24x3,8 Mhz * GTX 3080 Ti (12 GB)* Blackmagic Extreme 4K 12G * QNAP Max8 10 Gb Lan * Blackmagic Pocket 6K/6K Pro, EVA1, FS7

Laptop: ProArt Studiobook 16 OLED (ProArt Studiobook 16 OLED (i9 12900H with i-GPU Iris XE, 32 GB Ram). Geforce RTX 3070 TI 8GB) with internal HDR preview on the laptop monitor. Blackmagic Ultrastudio 4K mini

HDR monitor: ProArt Monitor PA32 UCG, Atomos Sumo

Others: Edius NX (Canopus NX)-card in an old XP-System. Edius X. Resolve Studio 18

Shaun_K wrote on 5/24/2024, 5:57 AM

The latest update is b315. Have you tried this update?

https://www.vegascreativesoftware.info/us/forum/update-vegas-pro-21-build-315-patch-for-314--145714/

I have, doesn't change anything unfortunately

VEGASDerek wrote on 5/24/2024, 10:21 AM

Thank you. We will attempt to have this fixed soon.

Shaun_K wrote on 6/4/2024, 8:22 AM

Thank you. We will attempt to have this fixed soon.

Is there a timeline for this?