Comments

rraud wrote on 11/7/2022, 4:06 PM

Copy and your source files' attributes using MediaInfo and paste them in a comment

Are you using any audio plug-ins?
Volume envelopes?

diverG wrote on 11/7/2022, 4:49 PM

Gopro10 is new. Maybe vp15 cannot handle the files. Pass files through handbrake(free) and retest. Possible hevc in, avc out but still .mp4.

Download vp20 trial and try test gopro files. Whatever you do don't shell out $$$ without trial.

Sys 1 Gig Z370-HD3, i7 8086K @ 5.0 Ghz 16gb ram, 250gb SSD, 2x2Tb hd,  GTX 1060 6Gb Vegas 18 & 19 plus Edius 8WG DVResolve18 Studio. Win 10pro (20H2) BMIP4k video out. (PS 750W)

Sys 2 Gig Z170-HD3, i7 6700K @ 3.8Ghz 16gb ram, 250gb SSD, 2x2Tb, hdd GTX 750ti,  Vegas 18 plus Edius 8WG DVResolve18 Studio Win 10pro (20H2) BMIP4k video out. (PS 650W)

Sys 3 Laptop 'Clevo' i7 6700K @ 3.0ghz, 16gb ram, 250gb SSd + 2Tb hdd,   nvidia 940 M graphics. VP17 via humble bundle. Plus Edius 8WG Win 10pro (20H2) Resolve18

 

wrocek wrote on 11/7/2022, 5:44 PM

General Format : MPEG-4

Format profile : Base Media / Version 1 File size : 3.73 GiB

Duration : 8 min 54 s

Overall bit rate : 59.9 Mb/s

Video

ID : 1

Format : AVC

Format/Info : Advanced Video Codec

Codec ID : avc1

Duration : 8 min 54 s

Bit rate : 59.7 Mb/s

Width : 2 704 pixels

Height : 1 520 pixels

Display aspect ratio : 16:9

Frame rate mode : Constant

Frame rate : 59.940 FPS

Color space : YUV

Bits/(Pixel*Frame) : 0.242

Stream size : 3.71 GiB (100%)

Title : GoPro AVC

Language : English

Color range : Limited

Color primaries : BT.709

Transfer characteristics : BT.709

Matrix coefficients : BT.709

Codec configuration box : avcC

 

Audio ID : 2

Format : AAC LC

Format/Info : Advanced Audio Codec

Codec ID : mp4a-40-2

Duration : 8 min 54 s

Bit rate mode : Constant

Bit rate : 192 kb/s

Nominal bit rate : 48.0 kb/s

Channel(s) : 2 channels

Channel layout : L R

Sampling rate : 48.0 kHz

Frame rate : 46.875 FPS (1024 SPF)

Compression mode : Lossy

Stream size : 12.1 MiB (0%)

Title : GoPro AAC

Language : English

Other #1 ID : 3

Type : Time code

Format : QuickTime TC

Duration : 8 min 54 s

Bit rate mode : Constant

Frame rate : 59.940 FPS

Time code of first frame : 11:35:31:24

Time code of last frame : 11:44:25:55

Time code, striped : Yes

Title : GoPro TCD

Language : English Other #2

Type : meta Duration : 8 min 54 s Bit rate mode : Variable

ChrisD wrote on 11/7/2022, 6:40 PM

FWIW, I have a GoPro10 and Vegas 19. Albeit my recording settings are different.

Format                  : MPEG-4
Format profile       : Base Media / Version 1
Codec ID             : mp41 (mp41)
File size                : 50.4 MiB
Duration                : 4 s 605 ms
Overall bit rate      : 91.8 Mb/s
Encoded date       : UTC 2022-08-15 16:10:27
Tagged date         : UTC 2022-08-15 16:10:27

Video
ID                           : 1
Format                   : HEVC
Format/Info             : High Efficiency Video Coding
Format profile         : Main@L6@Main
Codec ID                 : hvc1
Codec ID/Info          : High Efficiency Video Coding
Duration                   : 4 s 605 ms
Bit rate                     : 91.5 Mb/s
Width                        : 5 312 pixels
Height                       : 2 988 pixels
Display aspect ratio  : 16:9
Frame rate mode      : Constant
Frame rate               : 29.970 (30000/1001) FPS
Color space               : YUV
Chroma subsampling   : 4:2:0
Bit depth                      : 8 bits
Bits/(Pixel*Frame)        : 0.192
Stream size                   : 50.3 MiB (100%)
Title                              : GoPro H.265
Language                     : English
Encoded date               : UTC 2022-08-15 16:10:27
Tagged date                  : UTC 2022-08-15 16:10:27
Color range                   : Full
Color primaries              : BT.709
Transfer characteristics : BT.709
Matrix coefficients          : BT.709
Codec configuration box  : hvcC

Audio
ID                                     : 2
Format                             : AAC LC
Format/Info                      : Advanced Audio Codec Low Complexity
Codec ID                          : mp4a-40-2
Duration                           : 4 s 587 ms
Bit rate mode                    : Constant
Bit rate                              : 192 kb/s
Nominal bit rate                : 48.0 kb/s
Channel(s)                       : 2 channels
Channel layout                 : L R
Sampling rate                   : 48.0 kHz
Frame rate                       : 46.875 FPS (1024 SPF)
Compression mode           : Lossy
Stream size                       : 106 KiB (0%)
Title                                    : GoPro AAC  
Language                           : English
Encoded date                     : UTC 2022-08-15 16:10:27
Tagged date                        : UTC 2022-08-15 16:10:27

Other #1
ID                                       : 3
Type                                   : Time code
Format                               : QuickTime TC
Duration                             : 4 s 605 ms
Bit rate mode                     : Constant
Frame rate                         : 29.970 (30000/1001) FPS
Time code of first frame     : 16:42:55:18
Time code of last frame     : 16:43:00:06
Time code, striped             : Yes
Title                                    : GoPro TCD  
Language                           : English
Encoded date                     : UTC 2022-08-15 16:10:27
Tagged date                        : UTC 2022-08-15 16:10:27

Other #2
Type                                   : meta
Duration                              : 4 s 604 ms
Bit rate mode                      : Variable
Duration_LastFrame           : -401

john_dennis wrote on 11/8/2022, 10:01 AM

@wrocek

  1. Download and install Shutter Encoder.
  2. Convert the failing clip(s) to Apple ProRes.
  3. Open the converted Apple ProRes file in Vegas Pro.
  4. Report.

My main system:
Motherboard: Asus X99-AII
CPU: Intel i7-6850K
GPU: Sapphire Radeon RX480-8GB
RAM: Corsair Dominator (4 x 4 GB) DDR4 2400
Disk O/S & Programs: Intel SSD 750 (400 GB)
Disk Active Projects: 1TB & 2TB WD BLACK SN750 NVMe Internal PCI Express 3.0 x4 Solid State Drives
Disk Other: WD Ultrastar/Hitachi Hard Drives: WDBBUR0080BNC-WRSN, HGST HUH728080ALE600, 724040ALE640, HDS3020BLA642
Case: LIAN LI PC-90 Black Aluminum ATX Full Tower Case
CPU cooling: Corsair Hydro series H115i
Power supply: SeaSonic SS-750KM3 750W 80 PLUS GOLD Certified Full Modular Active PFC Power Supply
Drive Bay: Kingwin KF-256-BK 2.5" and 3.5" Trayless Hot Swap Rack with USB 3
Sound card: Crystal Sound 3 on motherboard. Recording done on another system.
Primary Monitor: Asus ProArt PA248q (24" 1920 x 1200)
O/S: Windows 10 Pro 22H2, Build 19045.2130

Camera: Sony RX10 Model IV

https://www.youtube.com/user/thedennischannel

wrocek wrote on 11/8/2022, 10:24 AM

yes sir, tnx.. it works now...

btw.. vegas has an offer for latest version, so.. i am about to invest some $$$$ to get rid of those bazzzzzzzzzing sounds...

tnx

john_dennis wrote on 11/8/2022, 11:15 AM

@wrocek

If you choose to use older versions of Vegas Pro with newer acquisition codecs, using Shutter Encoder to produce Apple ProRes is a good way to create easily edited video with trouble-free PCM audio.

My main system:
Motherboard: Asus X99-AII
CPU: Intel i7-6850K
GPU: Sapphire Radeon RX480-8GB
RAM: Corsair Dominator (4 x 4 GB) DDR4 2400
Disk O/S & Programs: Intel SSD 750 (400 GB)
Disk Active Projects: 1TB & 2TB WD BLACK SN750 NVMe Internal PCI Express 3.0 x4 Solid State Drives
Disk Other: WD Ultrastar/Hitachi Hard Drives: WDBBUR0080BNC-WRSN, HGST HUH728080ALE600, 724040ALE640, HDS3020BLA642
Case: LIAN LI PC-90 Black Aluminum ATX Full Tower Case
CPU cooling: Corsair Hydro series H115i
Power supply: SeaSonic SS-750KM3 750W 80 PLUS GOLD Certified Full Modular Active PFC Power Supply
Drive Bay: Kingwin KF-256-BK 2.5" and 3.5" Trayless Hot Swap Rack with USB 3
Sound card: Crystal Sound 3 on motherboard. Recording done on another system.
Primary Monitor: Asus ProArt PA248q (24" 1920 x 1200)
O/S: Windows 10 Pro 22H2, Build 19045.2130

Camera: Sony RX10 Model IV

https://www.youtube.com/user/thedennischannel