Comments

VEGASDerek wrote on 5/14/2024, 2:03 PM

And your media format is?

And your GPU is?

Ander your VEGAS version is?

GRAHAM-FLEMING wrote on 5/14/2024, 2:33 PM

media format: .mov

Version: Movie Studio 16.0 Platinum

GPU: NVIDIA GeForce GTX 1060 3GB

Note - GPU acceleration in program is turned off

set wrote on 5/14/2024, 4:42 PM

More detailed info of media is needed: https://www.vegascreativesoftware.info/us/forum/faq-how-to-post-mediainfo-and-vegas-pro-file-properties--104561/

Also https://www.vegascreativesoftware.info/us/forum/important-information-required-to-help-you--110457/

Setiawan Kartawidjaja
Bandung, West Java, Indonesia (UTC+7 Time Area)

Personal FB | Personal IG | Personal YT Channel
Chungs Video FB | Chungs Video IG | Chungs Video YT Channel
Personal Portfolios YouTube Playlist
Pond5 page: My Stock Footage of Bandung city

 

System 5-2021:
Processor: Intel(R) Core(TM) i7-10700 CPU @ 2.90GHz   2.90 GHz
Video Card1: Intel UHD Graphics 630 (Driver 31.0.101.2127 (Feb 1 2024 Release date))
Video Card2: NVIDIA GeForce RTX 3060 Ti 8GB GDDR6 (Driver Version 551.23 Studio Driver (Jan 24 2024 Release Date))
RAM: 32.0 GB
OS: Windows 10 Pro Version 22H2 OS Build 19045.3693
Drive OS: SSD 240GB
Drive Working: NVMe 1TB
Drive Storage: 4TB+2TB

 

System 2-2018:
ASUS ROG Strix Hero II GL504GM Gaming Laptop
Processor: Intel(R) Core(TM) i7 8750H CPU @2.20GHz 2.21 GHz
Video Card 1: Intel(R) UHD Graphics 630 (Driver 31.0.101.2111)
Video Card 2: NVIDIA GeForce GTX 1060 6GB GDDR5 VRAM (Driver Version 537.58)
RAM: 16GB
OS: Win11 Home 64-bit Version 22H2 OS Build 22621.2428
Storage: M.2 NVMe PCIe 256GB SSD & 2.5" 5400rpm 1TB SSHD

 

* I don't work for VEGAS Creative Software Team. I'm just Voluntary Moderator in this forum.

GRAHAM-FLEMING wrote on 5/14/2024, 5:30 PM

 

MediaInfo file properties.

General
Complete name                            : C:\Users\graha\OneDrive\Desktop\Video May 14 2024, 9 17 00 AM.mp4
Format                                   : MPEG-4
Format profile                           : QuickTime
Codec ID                                 : qt   0000.00 (qt  )
File size                                : 21.0 MiB
Duration                                 : 16 s 433 ms
Overall bit rate                         : 10.7 Mb/s
Encoded date                             : UTC 2024-05-14 14:17:00
Tagged date                              : UTC 2024-05-14 14:17:03
Writing library                          : Apple QuickTime

Video
ID                                       : 1
Format                                   : HEVC
Format/Info                              : High Efficiency Video Coding
Format profile                           : Main 10@L4.1@Main
HDR format                               : Dolby Vision, Version 1.0, dvhe.08.04, BL+RPU, HLG compatible
Codec ID                                 : hvc1
Codec ID/Info                            : High Efficiency Video Coding
Duration                                 : 16 s 433 ms
Bit rate                                 : 10.6 Mb/s
Width                                    : 1 920 pixels
Height                                   : 1 080 pixels
Display aspect ratio                     : 16:9
Frame rate mode                          : Variable
Frame rate                               : 29.878 FPS
Minimum frame rate                       : 15.000 FPS
Maximum frame rate                       : 30.000 FPS
Color space                              : YUV
Chroma subsampling                       : 4:2:0
Bit depth                                : 10 bits
Bits/(Pixel*Frame)                       : 0.171
Stream size                              : 20.8 MiB (99%)
Title                                    : Core Media Video
Encoded date                             : UTC 2024-05-14 14:17:00
Tagged date                              : UTC 2024-05-14 14:17:03
Color range                              : Limited
Color primaries                          : BT.2020
Transfer characteristics                 : HLG
Matrix coefficients                      : BT.2020 non-constant
Codec configuration box                  : hvcC+dvvC

Audio
ID                                       : 2
Format                                   : AAC LC
Format/Info                              : Advanced Audio Codec Low Complexity
Codec ID                                 : mp4a-40-2
Duration                                 : 16 s 400 ms
Source duration                          : 16 s 463 ms
Bit rate mode                            : Constant
Bit rate                                 : 128 kb/s
Channel(s)                               : 2 channels
Channel layout                           : L R
Sampling rate                            : 44.1 kHz
Frame rate                               : 43.066 FPS (1024 SPF)
Compression mode                         : Lossy
Stream size                              : 250 KiB (1%)
Source stream size                       : 251 KiB (1%)
Title                                    : Core Media Audio
Encoded date                             : UTC 2024-05-14 14:17:00
Tagged date                              : UTC 2024-05-14 14:17:03
 

Vegas properties.

General
  Name: Video May 14 2024, 9 17 00 AM.mp4
  Folder: C:\Users\graha\OneDrive\Desktop
  Type: Intel HEVC
  Size: 21.55 MB (22,062,548 bytes)
  Created: Tuesday, May 14, 2024, 9:17:54 AM
  Modified: Tuesday, May 14, 2024, 9:17:52 AM
  Accessed: Tuesday, May 14, 2024, 5:22:47 PM
  Attributes: Archive

Streams
  Video: 00:00:16.433, 30.000 fps progressive, 1920x1080x32, HEVC
  Audio: 00:00:16.367, 44,100 Hz, Stereo, AAC

ACID information
  ACID chunk: no
  Stretch chunk: no
  Stretch list: no
  Stretch info2: no
  Beat markers: no
  Detected beats: no

Other metadata
  Regions/markers: no
  Command markers: no

Media manager
  Media tags: no

Plug-In
  Name: mxhevcplug.dll
  Folder: C:\Program Files\VEGAS\Movie Studio Platinum 16.0\FileIO Plug-Ins\mxhevcplug
  Format: Intel HEVC
  Version: Version 1.0 (Build 8532)
  Company: MAGIX Computer Products Intl. Co.

3POINT wrote on 5/15/2024, 1:27 AM

Any work around?

Use the free app Shutter Encoder to convert your variable framerate HEVC.mov encoded iPhone video to constant framerate AVC.mp4.

GRAHAM-FLEMING wrote on 5/18/2024, 9:44 PM

I used Handbrake, which worked well.

Appreciate all the responses.

3POINT wrote on 5/18/2024, 11:30 PM

I used Handbrake, which worked well.

Appreciate all the responses.

Indeed, Handbrake does also do the job. Personally I prefer Shutter Encoder because besides doing this job, Shutter Encoder can do also dozens other video jobs.

Last changed by 3POINT on 5/18/2024, 11:30 PM, changed a total of 1 times.

3POINT, Theo Houben, Vegasuser since version 5 and co-founder and moderator of the Dutch Vegasforum https://www.vegas-videoforum.nl/index.php

Recware: DJI Osmo Pocket/Mavic Mini, GoproHero7Black, PanasonicFZ300/HCX909.

Software: Vegaspro365+Vegasaur, PowerDirector365, Davinci Resolve 18

Hardware: i910900k, 32GB, GTX2080super, 2x1920x1200 display

Playware: Samsung Qled QE65Q6FN, Philips 55PFL7108

Gid wrote on 5/19/2024, 4:46 AM

@GRAHAM-FLEMING Hi, there'll be an option in your iPhone that allows you turn HEVC off, your phone will then create AVC files. it'll still be a variable frame rate just like the HEVC ones but should play in your VP,. (I think in iPhones there's a Dolby setting that can cause problems.)

MP4 HEVC & MP4 AVC are essentially the same to anyone who doesn't scrutinise their footage & you prob won't notice any difference in quality etc,

HEVC & AVC are compression techniques to reduce the video information so it can be saved on the SD card, but HEVC is the newer version designed for the now bigger 4k+ & therefore bigger file size that phones/cameras create nowadays , there's more to it than this - like it helps with streaming etc. but Google HEVC vs AVC to know more accurate facts.

But basically AVC is the old way & all editors etc, are set up to use that without problems, HEVC is new, it's a bit more intensive on the PC & some older software isn't set up to use it..

 

 

Vegas Pro 21
Vegas Pro/Post 19
Boris Continuum & Sapphire, 
Silhouette Standalone + Plugin, 
Mocha Pro Standalone + Plugin, 
Boris Optics,
NewBlue TotalFX
Desktop PC Microsoft Windows 10 Pro - 64-Bit
ASUS PRO WS WRX80E-SAGE SE WIFI AMD Motherboard
AMD Ryzen Threadripper PRO 3975WX 3.5GHz 32 Core
Corsair iCUE H150i RGB PRO XT 360mm All-in-One Liquid CPU Cooler
RAM 256GB ( 8x Micron 32GB (1x 32GB) 2666MHz DDR4 RAM )
2x Western Digital Black SN850 2TB M.2-2280 SSD, 7000MB/s Read, 5100MB/s Write
(programs on one, project files on the other)
Graphics MSI GeForce RTX 3090 SUPRIM X 24GB OC GPU
ASUS ROG Thor 1200W Semi-Modular 80+ Platinum PSU 
Fractal Design Define 7 XL Dark TG Case with 3 Fans
Dell SE3223Q 31.5 Inch 4K UHD (3840x2160) Monitor, 60Hz, & an Acer 24" monitor.

At the moment my filming is done with a Samsung Galaxy S23 Ultra 5G & a GoPro11

I've been a Joiner/Carpenter for 40yrs, apprentice trained time served, I don't have an apprentice of my own so to share my knowledge I put videos on YouTube.

YouTube videos - https://www.youtube.com/c/Gidjoiner

Lots of work photos on Facebook - https://www.facebook.com/gid.joiner/photos_albums