VEGAS 14 - Media Offline (Black Preview), Audio Still Plays??

dannyzee wrote on 9/25/2022, 6:39 PM

I am using VEGAS Pro 14 on a pretty beefy computer.

I have been editing and rendering .mp4s for a long time with no issue. Recently I tried to swap my color format n OBS to I444 from NV12. No other changes though. The videos are always rendered with NVIDIA NVENC H.264

My recording is totally fine when I watch it in VLC media player, video plays just fine + audio is there.

When I place the file into Vegas, the audio + waveforms load in but the video is just black. When I minimize the application, it says (Media Offline) over ONLY the video track. This is so bizarre. Tried tweaking the project settings and preferences but I literally can't get it to show up.

 

Please Help!

 

Media Info:

General
Complete name                            : F:\Footage\video.mp4
Format                                   : MPEG-4
Format profile                           : Base Media
Codec ID                                 : isom (isom/iso2/avc1/mp41)
File size                                : 9.14 GiB
Duration                                 : 1 h 9 min
Overall bit rate mode                    : Variable
Overall bit rate                         : 18.7 Mb/s
Writing application                      : Lavf59.16.100

Video
ID                                       : 1
Format                                   : AVC
Format/Info                              : Advanced Video Codec
Format profile                           : High 4:4:4 Predictive@L4.2
Format settings                          : 4 Ref Frames
Format settings, CABAC                   : No
Format settings, Reference frames        : 4 frames
Codec ID                                 : avc1
Codec ID/Info                            : Advanced Video Coding
Duration                                 : 1 h 9 min
Source duration                          : 1 h 9 min
Bit rate mode                            : Variable
Bit rate                                 : 18.4 Mb/s
Maximum bit rate                         : 19.0 Mb/s
Width                                    : 1 920 pixels
Height                                   : 1 080 pixels
Display aspect ratio                     : 16:9
Frame rate mode                          : Variable
Frame rate                               : 60.000 FPS
Minimum frame rate                       : 29.412 FPS
Maximum frame rate                       : 62.500 FPS
Color space                              : YUV
Chroma subsampling                       : 4:4:4
Bit depth                                : 8 bits
Scan type                                : Progressive
Bits/(Pixel*Frame)                       : 0.148
Stream size                              : 8.98 GiB (98%)
Source stream size                       : 8.98 GiB (98%)
Color range                              : Limited
Color primaries                          : BT.709
Transfer characteristics                 : BT.709
Matrix coefficients                      : BT.709
mdhd_Duration                            : 4193549
Codec configuration box                  : avcC

Audio #1
ID                                       : 2
Format                                   : AAC LC
Format/Info                              : Advanced Audio Codec Low Complexity
Codec ID                                 : mp4a-40-2
Duration                                 : 1 h 9 min
Bit rate mode                            : Constant
Bit rate                                 : 132 kb/s
Channel(s)                               : 1 channel
Channel layout                           : C
Sampling rate                            : 48.0 kHz
Frame rate                               : 46.875 FPS (1024 SPF)
Compression mode                         : Lossy
Stream size                              : 65.4 MiB (1%)
Title                                    : Track1
Default                                  : Yes
Alternate group                          : 1

Audio #2
ID                                       : 3
Format                                   : AAC LC
Format/Info                              : Advanced Audio Codec Low Complexity
Codec ID                                 : mp4a-40-2
Duration                                 : 1 h 9 min
Bit rate mode                            : Constant
Bit rate                                 : 6 125 b/s
Channel(s)                               : 1 channel
Channel layout                           : C
Sampling rate                            : 48.0 kHz
Frame rate                               : 46.875 FPS (1024 SPF)
Compression mode                         : Lossy
Stream size                              : 3.06 MiB (0%)
Title                                    : Track2
Default                                  : No
Alternate group                          : 1

Audio #3
ID                                       : 4
Format                                   : AAC LC
Format/Info                              : Advanced Audio Codec Low Complexity
Codec ID                                 : mp4a-40-2
Duration                                 : 1 h 9 min
Bit rate mode                            : Constant
Bit rate                                 : 162 kb/s
Channel(s)                               : 1 channel
Channel layout                           : C
Sampling rate                            : 48.0 kHz
Frame rate                               : 46.875 FPS (1024 SPF)
Compression mode                         : Lossy
Stream size                              : 81.0 MiB (1%)
Title                                    : Track3
Default                                  : No
Alternate group                          : 1

Comments

john_dennis wrote on 9/25/2022, 7:37 PM

@dannyzee

Frame rate mode                          : Variable
Frame rate                               : 60.000 FPS
Minimum frame rate                     : 29.412 FPS
Maximum frame rate                     : 62.500 FPS

  1. Take revolver out of the holster
  2. Cock the hammer
  3. Point at foot
  4. Fire
  5. Download and install Shutter Encoder
  6. Open your problem .mp4 file in Shutter Encoder
  7. Choose Function "Conform"
  8. Pick a frame rate from this planet
  9. Start Function
  10. Try the resulting file in Vegas Pro 14
  11. Report your results here

Last changed by john_dennis on 9/25/2022, 7:38 PM, changed a total of 1 times.

My main system:
Motherboard: Asus X99-AII
CPU: Intel i7-6850K
GPU: Sapphire Radeon RX480-8GB
RAM: Corsair Dominator (4 x 4 GB) DDR4 2400
Disk O/S & Programs: Intel SSD 750 (400 GB)
Disk Active Projects: 1TB & 2TB WD BLACK SN750 NVMe Internal PCI Express 3.0 x4 Solid State Drives
Disk Other: WD Ultrastar/Hitachi Hard Drives: WDBBUR0080BNC-WRSN, HGST HUH728080ALE600, 724040ALE640, HDS3020BLA642
Case: LIAN LI PC-90 Black Aluminum ATX Full Tower Case
CPU cooling: Corsair Hydro series H115i
Power supply: SeaSonic SS-750KM3 750W 80 PLUS GOLD Certified Full Modular Active PFC Power Supply
Drive Bay: Kingwin KF-256-BK 2.5" and 3.5" Trayless Hot Swap Rack with USB 3
Sound card: Crystal Sound 3 on motherboard. Recording done on another system.
Primary Monitor: Asus ProArt PA248q (24" 1920 x 1200)
O/S: Windows 10 Pro 22H2, Build 19045.2130

Camera: Sony RX10 Model IV

https://www.youtube.com/user/thedennischannel

dannyzee wrote on 9/25/2022, 10:37 PM

@dannyzee

Frame rate mode                          : Variable
Frame rate                               : 60.000 FPS
Minimum frame rate                     : 29.412 FPS
Maximum frame rate                     : 62.500 FPS

  1. Take revolver out of the holster
  2. Cock the hammer
  3. Point at foot
  4. Fire
  5. Download and install Shutter Encoder
  6. Open your problem .mp4 file in Shutter Encoder
  7. Choose Function "Conform"
  8. Pick a frame rate from this planet
  9. Start Function
  10. Try the resulting file in Vegas Pro 14
  11. Report your results here

Well that was it! Turns out that OBS' remux feature is buggy and results in this occasionally. Never had this issue before. Thanks for catching that small detail. Looking at my other workable .mp4s these files have a min frame rate of 58 and avg of 60. I guess this one was too low and caused Vegas to freak out?

Anyways, thank you.

andyrpsmith wrote on 9/26/2022, 2:56 AM

As John says Vegas is not a fan of variable frame rates.

walter-i. wrote on 9/26/2022, 3:31 AM
 
  1. Take revolver out of the holster
  2. Cock the hammer
  3. Point at foot
  4. Fire

@john_dennis
Simply delicious!
You have made my day

rraud wrote on 9/26/2022, 9:30 AM

Take revolver out of the holster, Cock the hammer, Point at foot, Fire

Been there, done that

@john_dennis You have made my day

+11