Comments

EricLNZ wrote on 7/4/2022, 11:54 PM

Post Media Info on your HyperDeck mp4 files so we can see what's inside them. Instructions here https://www.vegascreativesoftware.info/us/forum/faq-how-to-post-mediainfo-and-vegas-pro-file-properties--104561/

MyChain wrote on 7/5/2022, 1:16 AM

Thanks @EricLNZ

General
Complete name                            : N:\Blackmagic HyperDeck Studio Mini[0002].mp4
Format                                   : MPEG-4
Format profile                           : Base Media
Codec ID                                 : isom (iso4/avc1/isom)
File size                                 : 839 MiB
Duration                                 : 1 min 55 s
Overall bit rate                         : 60.8 Mb/s
Encoded date                             : UTC 2000-12-09 08:46:42
Tagged date                              : UTC 2000-12-09 08:46:42
Writing library                           : Apple QuickTime

Video
ID                                       : 1
Format                                   : AVC
Format/Info                              : Advanced Video Codec
Format profile                           : Main@L5
Format settings                          : CABAC / 1 Ref Frames
Format settings, CABAC                   : Yes
Format settings, Reference frames        : 1 frame
Format settings, GOP                     : M=1, N=25
Muxing mode                              : Container profile=Main@8.0
Codec ID                                 : avc1
Codec ID/Info                            : Advanced Video Coding
Duration                                 : 1 min 55 s
Bit rate                                 : 57.5 Mb/s
Width                                    : 1 920 pixels
Height                                   : 1 080 pixels
Display aspect ratio                     : 16:9
Frame rate mode                          : Constant
Frame rate                               : 50.000 FPS
Color space                              : YUV
Chroma subsampling                       : 4:2:0
Bit depth                                : 8 bits
Scan type                                : Progressive
Bits/(Pixel*Frame)                       : 0.554
Stream size                              : 792 MiB (94%)
Language                                 : English
Encoded date                             : UTC 2000-12-09 08:46:42
Tagged date                              : UTC 2000-12-09 08:46:42
Color range                              : Limited
Color primaries                          : BT.709
Transfer characteristics                 : BT.709
Matrix coefficients                      : BT.709
Codec configuration box                  : avcC

Audio
ID                                       : 2
Format                                   : PCM
Format settings                          : Big / Signed
Codec ID                                 : in24
Duration                                 : 1 min 55 s
Bit rate mode                            : Constant
Bit rate                                 : 2 304 kb/s
Channel(s)                               : 2 channels
Sampling rate                            : 48.0 kHz
Bit depth                                : 24 bits
Stream size                              : 21.2 MiB (3%)
Language                                 : English
Encoded date                             : UTC 2000-12-09 08:46:42
Tagged date                              : UTC 2000-12-09 08:46:42

Other
ID                                       : 3
Type                                     : Time code
Format                                   : QuickTime TC
Duration                                 : 1 min 55 s
Frame rate                               : 50.000 FPS
Time code of first frame                 : 00:00:00:00
Time code of last frame                  : 00:01:55:34
Time code, striped                       : Yes
Language                                 : English
Encoded date                             : UTC 2000-12-09 08:46:42
Tagged date                              : UTC 2000-12-09 08:46:42

Yelandkeil wrote on 7/5/2022, 1:32 AM

It would be no problem if you can set the audio to PCM-Little/Signed and more better with 16bits depth.

ASUS TUF Gaming B550plus BIOS3202: 
*Thermaltake TOUGHPOWER GF1 850W 
*ADATA XPG GAMMIX S11PRO 512GB->sys & 2TB->data 
*G.SKILL F4-3200C16Q-64GFX 
*AMD Ryzen9 5950x + LiquidFreezer II-240 
*XFX Speedster-MERC319-RX6900XT <-Adrenalin 24.3.1
Samsung 2xLU28R55 300CD/m²HDR10 (peak 1499nits)->2xDPorts
ROCCAT Kave 5.1Headset/Mic ->Analog
LG DSP7 Surround 5.1Soundbar ->TOSLINK (AAFOptimusPack 6.0.9403.1)

GH5sHLG_4k30p: AWB, Exposure=Manual, Shutter100, ISO320
ProtuneFlat_2.7k60pLinear: WB5500K, Shutter120, ISO400

Windows11Pro 23H2-22631.3447
Direct3D® DriverVersion 9.17.11.0260 (API=12.2)

Vegaspro21 + Handbrake/XMediaRecode + DVDArchi7 
Acidpro10 + SoundForgepro14.0.065 + SpectraLayerspro7 

K-LitecodecPack17.8.0 (MPC Video Renderer for HDR10-Videoplayback) 

MyChain wrote on 7/5/2022, 2:06 AM

@Yelandkeil OK I will try.

Howard-Vigorita wrote on 7/5/2022, 11:15 AM

I've seen Hyperdeck mp4 issues discussed on the bmd and reddit forums in the past... they usually recommend recording in a ProRes format instead.

j-v wrote on 7/5/2022, 12:10 PM

@MyChain
Did you activate QT in Options/Preferences/Deprecated Features?

met vriendelijke groet
Marten

Camera : Pan X900, GoPro Hero7 Hero Black, DJI Osmo Pocket, Samsung Galaxy A8
Desktop :MB Gigabyte Z390M, W11 home version 23H2, i7 9700 4.7Ghz,16 DDR4 GB RAM, Gef. GTX 1660 Ti with driver
551.86 Studiodriver and Intel HD graphics 630 with driver 31.0.101.2127
Laptop  :Asus ROG Str G712L, W11 home version 23H2, CPU i7-10875H, 16 GB RAM, NVIDIA GeForce RTX 2070 with Studiodriver 551.86 and Intel UHD Graphics 630 with driver 31.0.101.2127
Vegas software: VP 10 to 21 and VMS(pl) 10,12 to 17.
TV      :LG 4K 55EG960V

My slogan is: BE OR BECOME A STEM CELL DONOR!!! (because it saved my life in 2016)

 

MyChain wrote on 7/6/2022, 5:13 AM

I've seen Hyperdeck mp4 issues discussed on the bmd and reddit forums in the past... they usually recommend recording in a ProRes format instead.

Thanks, I'll Record in ProRes format instead.

MyChain wrote on 7/6/2022, 5:14 AM

I've seen Hyperdeck mp4 issues discussed on the bmd and reddit forums in the past... they usually recommend recording in a ProRes format instead.

Thanks, I'll Record in ProRes format instead.

Yes, I have enabled this section.
Thanks

fr0sty wrote on 7/6/2022, 6:47 AM

ProRes is higher quality and decodes in vegas easier than mp4 anyway.