Cant find the correct render settings.

Cory-Carpenter wrote on 9/22/2020, 11:29 PM

Hello all... I record video on monitor that is 3440x1440. I can't seem to find the proper render settings to create video that fits my ultrawide monitor while still coming out clear as it should. I upload my videos to youtube FYI. I have searched all the tutorial videos, but I cant find any that help with the aspect ratio I am dealing with. Can someone share a link or step by step instructions on what I need to do?

Comments

Musicvid wrote on 9/23/2020, 3:40 AM

https://www.vegascreativesoftware.info/us/forum/faq-how-to-post-mediainfo-and-vegas-pro-file-properties--104561/

Cory-Carpenter wrote on 9/23/2020, 6:09 PM

Ok I have it. Here is what the app says about my video...

 

Format                                   : MPEG-4
Format profile                           : Base Media / Version 2
Codec ID                                 : mp42 (isom/mp42)
File size                                : 3.43 GiB
Duration                                 : 10 min 0 s
Overall bit rate                         : 49.1 Mb/s
Recorded date                            : 2020
Encoded date                             : UTC 2020-07-25 01:40:29
Tagged date                              : UTC 2020-07-25 01:40:29

Video
ID                                       : 1
Format                                   : AVC
Format/Info                              : Advanced Video Codec
Format profile                           : High@L5.2
Format settings                          : CABAC / 1 Ref Frames
Format settings, CABAC                   : Yes
Format settings, Reference frames        : 1 frame
Format settings, GOP                     : M=1, N=30
Codec ID                                 : avc1
Codec ID/Info                            : Advanced Video Coding
Duration                                 : 10 min 0 s
Source duration                          : 10 min 0 s
Bit rate                                 : 48.9 Mb/s
Width                                    : 3 440 pixels
Height                                   : 1 440 pixels
Display aspect ratio                     : 2.40:1
Frame rate mode                          : Variable
Frame rate                               : 60.000 FPS
Minimum frame rate                       : 54.348 FPS
Maximum frame rate                       : 67.315 FPS
Standard                                 : PAL
Color space                              : YUV
Chroma subsampling                       : 4:2:0
Bit depth                                : 8 bits
Scan type                                : Progressive
Bits/(Pixel*Frame)                       : 0.165
Stream size                              : 3.42 GiB (100%)
Source stream size                       : 3.42 GiB (100%)
Title                                    : VideoHandle
Encoded date                             : UTC 2020-07-25 01:40:29
Tagged date                              : UTC 2020-07-25 01:40:29
Color range                              : Limited
Color primaries                          : BT.601 NTSC
Transfer characteristics                 : BT.470 System M
Matrix coefficients                      : BT.601
mdhd_Duration                            : 600100
Codec configuration box                  : avcC

Audio
ID                                       : 2
Format                                   : AAC LC
Format/Info                              : Advanced Audio Codec Low Complexity
Codec ID                                 : mp4a-40-2
Duration                                 : 10 min 0 s
Source duration                          : 10 min 0 s
Bit rate mode                            : Constant
Bit rate                                 : 192 kb/s
Nominal bit rate                         : 96.0 kb/s
Channel(s)                               : 2 channels
Channel layout                           : L R
Sampling rate                            : 48.0 kHz
Frame rate                               : 46.875 FPS (1024 SPF)
Compression mode                         : Lossy
Stream size                              : 14.0 MiB (0%)
Source stream size                       : 14.0 MiB (0%)
Title                                    : SoundHandle / System sounds
Encoded date                             : UTC 2020-07-25 01:40:29
Tagged date                              : UTC 2020-07-25 01:40:29
mdhd_Duration                            : 600102

Musicvid wrote on 9/23/2020, 10:47 PM

Your video is 5:2 DAR if I did my math right. Most monitors and players are 16:9 or 16:10.

For 16:9, the ratio math is 1440/9*16=Width

https://en.wikipedia.org/wiki/Display_aspect_ratio

If you are not on Vegas 17 or 18, your variable frame rate video may not play nice.

 

j-v wrote on 9/24/2020, 4:28 AM

Depending on your used program I think it is possible in the Platinum version.
I doubt if it can be made in the Plain Movie Studio.
Look at the screenshot how to do in f.i. VMS Pl 17

1. First set the projectproperties to 3440x1440 at 6o fps and load your source
2. Choose from menu Project> Renderas..., choose an mp4 internet template and customize it as I showed.
 

met vriendelijke groet
Marten

Camera : Pan X900, GoPro Hero7 Hero Black, DJI Osmo Pocket, Samsung Galaxy A8
Desktop :MB Gigabyte Z390M, W10 home version 2004 build 19041.264, i7 9700 4.7Ghz,16 DDR4 GB RAM, Gef. GTX 1660 Ti.
Laptop  :Asus ROG GL753VD, W10 home version 2004 build 19041.264, CPU i7 7700HQ, 8 GB RAM, GeF. GTX 1050 (2 GB) + Int. HD Graphics 630(2GB).VP 17,18 and VMS PL 16,17 are installed, all latest builds
Both Nvidia GPU's have driver version 456.38 Studio Driver.
TV      :LG 4K 55EG960V

My slogan is: BE OR BECOME A STEMCELL DONOR !!!