Comments

Zavandro-Andriamaheninkaja wrote on 4/1/2020, 7:57 AM

Nothing has changed, no software removed, no new install since my automatic update if turned off; that's why i am confused.

 

j-v wrote on 4/1/2020, 9:27 AM

Can you give here the MediaInfo of that AVI file: https://www.vegascreativesoftware.info/us/forum/faq-how-to-post-mediainfo-and-vegas-pro-file-properties--104561/

met vriendelijke groet
Marten

Camera : Pan X900, GoPro Hero7 Hero Black, DJI Osmo Pocket, Samsung Galaxy A8
Desktop :MB Gigabyte Z390M, W10 home version 2004 build 19041.264, i7 9700 4.7Ghz,16 DDR4 GB RAM, Gef. GTX 1660 Ti.
Laptop  :Asus ROG GL753VD, W10 home version 2004 build 19041.264, CPU i7 7700HQ, 8 GB RAM, GeF. GTX 1050 (2 GB) + Int. HD Graphics 630(2GB).VP 16,17 and VMS PL 16,17 are installed, all latest builds
Both Nvidia GPU's have driver version 451.48 Studio Driver, desktop the Studio DHC driver
TV      :LG 4K 55EG960V

My slogan is: BE OR BECOME A STEMCELL DONOR !!!

Zavandro-Andriamaheninkaja wrote on 4/1/2020, 9:38 AM
General
Complete name                            : C:\Users\Hoda Zavandro\Desktop\MOVIE FILES\3.30.20\DCIM\100MEDIA\SUNP0007.AVI
Format                                   : AVI
Format/Info                              : Audio Video Interleave
File size                                : 2.04 GiB
Duration                                 : 12 min 13 s
Overall bit rate                         : 23.9 Mb/s

Video
ID                                       : 0
Format                                   : JPEG
Codec ID                                 : MJPG
Duration                                 : 12 min 13 s
Bit rate                                 : 23.7 Mb/s
Width                                    : 1 280 pixels
Height                                   : 720 pixels
Display aspect ratio                     : 16:9
Frame rate                               : 30.590 FPS
Color space                              : YUV
Chroma subsampling                       : 4:2:2
Bit depth                                : 8 bits
Compression mode                         : Lossy
Bits/(Pixel*Frame)                       : 0.841
Stream size                              : 2.03 GiB (99%)

Audio
ID                                       : 1
Format                                   : PCM
Format settings                          : Little / Signed
Codec ID                                 : 1
Duration                                 : 12 min 13 s
Bit rate mode                            : Constant
Bit rate                                 : 176.4 kb/s
Channel(s)                               : 1 channel
Sampling rate                            : 11.025 kHz
Bit depth                                : 16 bits
Stream size                              : 15.4 MiB (1%)
Alignment                                : Aligned on interleaves
Interleave, duration                     : 93  ms (2.84 video frames)

 

Musicvid wrote on 4/1/2020, 10:05 AM

There are some older MJPEG codecs for Windows still around, Like Morgan, Mainconcept trial, PicVideo, although any more I just convert in Handbrake.

DO NOT install a codec "pack." That is just asking for trouble with other formats.

I can promise you your system did not come with a software MJPEG AVI VFW codec.

Zavandro-Andriamaheninkaja wrote on 4/1/2020, 10:07 AM

Thank you Musicvid. Any suggestion?

Musicvid wrote on 4/1/2020, 10:09 AM

Yes. Convert in Handbrake.