Problems importing files from Camera Akaso v50 Elite to Vegas Pro 17

Nanozombi wrote on 4/5/2020, 6:17 AM

Hi friends,

I wrote some time ago because I could not import some recorded files into Vegas Pro and I still couldn't find out why this happens.

I recorded with the following resolutions:

4k 60fps - the camera does not allow to select a codec. Link to the file here. Info (MediaInfo and HandBrake) here

The file does not open in: Vegas Pro 17 build 387 (it only opens the audio track), Magix Video Pro X (shows message MXMPEG2 Error 0110: no media decoder found), Movie Studio 13.0, Adobe Premiere Pro CC 2020 (it only opens the audio track).

The file opens in Filmora 9.2.0.35

It is strange that MediaInfo shows this:

Video
ID                                       : 1
Format                                   : JPEG
Codec ID                                 : jpeg

Although Filmora opens it without issues.

2.7k 60 fps H265 Link here. Info (MediaInfo and HandBrake) here

The file does not open in: Movie Studio 13.0

The file opens in Vegas Pro 17 build 387 (only with Enable Hardware Decoding for supported formats: On - NVidia NVDEC), Magix Video Pro X, Filmora 9.2.0.35, Adobe Premiere Pro CC 2020

2.7k 60 fps H264 Link here. Info (MediaInfo and HandBrake) here

The file opens everywhere: in Vegas Pro 17 build 387, Magix Video Pro X, Filmora 9.2.0.35, Movie Studio 13.0, Adobe Premiere Pro CC 2020

My Vegas Pro preferences:

Status of GPU acceleration of video processing: Optimal - Ge Force GTX 1050 Ti, or Off -it does not change anything

Enable Hardware Decoding for supported formats: On - NVidia NVDEC

Graphics Card Driver Version: Nvidia 445.75

Working on W10 Home 64

 

Any help will be much appreciated, I am getting crazy with this :P

Thanks in advance!

Comments

Nanozombi wrote on 4/5/2020, 6:53 AM

VLC Player shows that the codec for the 4k 60fps video is Motion JPEG Video (MJPG) and it plays the file correctly if it can be of any help...

 

Dexcon wrote on 4/5/2020, 6:58 AM

@Nanozombi … the links you provided in your original post require a decryption code.

Perhaps you could copy/paste the MediaInfo data directly to a new comment on this forum post.

j-v wrote on 4/5/2020, 7:02 AM

Your links cannot be opened while a key is needed, so we cannot look to them.
You have to use the latest build of Vpro 17 build 421, you now don't use.

met vriendelijke groet
Marten

Camera : Pan X900, GoPro Hero7 Hero Black, Samsung Galaxy A8
Desktop :MB Gigabyte Z390M, W10 home version 1909 build 18363.720, i7 9700 4.7Ghz,16 DDR4 GB RAM, Gef. GTX 1660 Ti.
Laptop  :Asus ROG GL753VD, W10 home version 1909 build 18363.720, CPU i7 7700HQ, 8 GB RAM, GeF. GTX 1050 (2 GB) + Int. HD Graphics 630(2GB).VP 16,17 and VMS PL 16,17 are installed, all latest builds
Both Nvidia GPU's have driver version 442.92 Studio Driver, desktop the Studio DHC driver
TV      :LG 4K 55EG960V

Dutch video tutorials for beginners

My slogan is: BE OR BECOME A STEMCELL DONOR !!!

Nanozombi wrote on 4/5/2020, 7:17 AM

Thanks for your answers,

here you have the details for the file that won't open (4K 60fps), I believe it is because it is using Motion JPEG codec which seems to be deprecated (I already enabled the QuickTime plugin in the deprecated features tab)

MEDIAINFO
General
Complete name                            : e:\Users\Xavi\Desktop\4K 60FPS.MOV
Format                                   : MPEG-4
Format profile                           : Base Media / Version 2
Codec ID                                 : mp42 (mp42/avc1)
File size                                : 198 MiB
Duration                                 : 11 s 33 ms
Overall bit rate                         : 151 Mb/s
Encoded date                             : UTC 2020-04-05 00:18:46
Tagged date                              : UTC 2020-04-05 00:18:46

Video
ID                                       : 1
Format                                   : JPEG
Codec ID                                 : jpeg
Duration                                 : 11 s 33 ms
Source duration                          : 14 s 700 ms
Bit rate                                 : 150 Mb/s
Width                                    : 3 840 pixels
Height                                   : 2 160 pixels
Display aspect ratio                     : 16:9
Frame rate mode                          : Constant
Frame rate                               : 60.000 FPS
Color space                              : YUV
Chroma subsampling                       : 4:2:0
Bit depth                                : 8 bits
Scan type                                : Progressive
Compression mode                         : Lossy
Bits/(Pixel*Frame)                       : 0.302
Stream size                              : 198 MiB (100%)
Source stream size                       : 198 MiB (100%)
Language                                 : English
Encoded date                             : UTC 2020-04-05 00:18:46
Tagged date                              : UTC 2020-04-05 00:18:46
Color primaries                          : BT.601 NTSC
Transfer characteristics                 : BT.709
Matrix coefficients                      : BT.601
mdhd_Duration                            : 11033

Audio
ID                                       : 2
Format                                   : AAC LC
Format/Info                              : Advanced Audio Codec Low Complexity
Codec ID                                 : mp4a-40-2
Duration                                 : 11 s 33 ms
Source duration                          : 11 s 29 ms
Bit rate mode                            : Constant
Bit rate                                 : 128 kb/s
Channel(s)                               : 2 channels
Channel layout                           : L R
Sampling rate                            : 48.0 kHz
Frame rate                               : 46.875 FPS (1024 SPF)
Compression mode                         : Lossy
Stream size                              : 172 KiB (0%)
Source stream size                       : 172 KiB (0%)
Encoded date                             : UTC 2020-04-05 00:18:46
Tagged date                              : UTC 2020-04-05 00:18:46

HANDBRAKE
[12:11:22] hb_init: starting libhb thread

 # Starting Scan ...

[12:11:22] CPU: Intel(R) Core(TM) i5-9600K CPU @ 3.70GHz
[12:11:22]  - Intel microarchitecture Kaby Lake
[12:11:22]  - logical processor count: 6
[12:11:22] Intel Quick Sync Video support: no
[12:11:22] hb_scan: path=e:\Users\Xavi\Desktop\4K 60FPS.MOV, title_index=0
udfread ERROR: ECMA 167 Volume Recognition failed
src/libbluray/disc/disc.c:323: failed opening UDF image e:\Users\Xavi\Desktop\4K 60FPS.MOV
src/libbluray/disc/disc.c:424: error opening file BDMV\index.bdmv
src/libbluray/disc/disc.c:424: error opening file BDMV\BACKUP\index.bdmv
[12:11:22] bd: not a bd - trying as a stream/file instead
libdvdnav: Using dvdnav version 6.0.0
libdvdread: Encrypted DVD support unavailable.
libdvdread:DVDOpenFileUDF:UDFFindFile /VIDEO_TS/VIDEO_TS.IFO failed
libdvdread:DVDOpenFileUDF:UDFFindFile /VIDEO_TS/VIDEO_TS.BUP failed
libdvdread: Can't open file VIDEO_TS.IFO.
libdvdnav: vm: failed to read VIDEO_TS.IFO
[12:11:22] dvd: not a dvd - trying as a stream/file instead
Input #0, mov,mp4,m4a,3gp,3g2,mj2, from 'e:\Users\Xavi\Desktop\4K 60FPS.MOV':
  Metadata:
    major_brand     : mp42
    minor_version   : 1
    compatible_brands: mp42avc1
    creation_time   : 2020-04-05T00:18:46.000000Z
  Duration: 00:00:11.03, start: 0.000000, bitrate: 150513 kb/s
    Stream #0:0(eng): Video: mjpeg (jpeg / 0x6765706A), yuvj420p(pc, bt470bg/smpte170m/bt709), 3840x2160, 150374 kb/s, 60 fps, 60 tbr, 60k tbn, 60k tbc (default)
    Metadata:
      creation_time   : 2020-04-05T00:18:46.000000Z
      encoder         : iCatch AVC
    Stream #0:1(und): Audio: aac (LC) (mp4a / 0x6134706D), 48000 Hz, stereo, fltp, 127 kb/s (default)
    Metadata:
      creation_time   : 2020-04-05T00:18:46.000000Z
[12:11:22] scan: decoding previews for title 1
[12:11:23] scan: audio 0x1: aac, rate=48000Hz, bitrate=127809 Unknown (AAC LC) (2.0 ch)
[12:11:24] scan: 10 previews, 3840x2160, 79.940 fps, autocrop = 0/0/0/0, aspect 16:9, PAR 1:1
[12:11:24] libhb: scan thread found 1 valid title(s)

 # Processing Scan Information ...


 # Scan Finished ...

Nanozombi wrote on 4/5/2020, 7:20 AM

Links to the files have been fixed if you still need to see them 😊

j-v wrote on 4/5/2020, 7:25 AM

This is the codec of your used problem file

that codec is not supported in Vegas Pro that you can cheque at the specs for this program, look

met vriendelijke groet
Marten

Camera : Pan X900, GoPro Hero7 Hero Black, Samsung Galaxy A8
Desktop :MB Gigabyte Z390M, W10 home version 1909 build 18363.720, i7 9700 4.7Ghz,16 DDR4 GB RAM, Gef. GTX 1660 Ti.
Laptop  :Asus ROG GL753VD, W10 home version 1909 build 18363.720, CPU i7 7700HQ, 8 GB RAM, GeF. GTX 1050 (2 GB) + Int. HD Graphics 630(2GB).VP 16,17 and VMS PL 16,17 are installed, all latest builds
Both Nvidia GPU's have driver version 442.92 Studio Driver, desktop the Studio DHC driver
TV      :LG 4K 55EG960V

Dutch video tutorials for beginners

My slogan is: BE OR BECOME A STEMCELL DONOR !!!

j-v wrote on 4/5/2020, 7:54 AM

@Nanozombi

1. You are using the wrong build

2. You are using the wrong Nvidia driver, it is the latest Game driver and you need the latest Studio driver for your Nvidia GPU

3. Your first showed videofile has a codec that is not supported in Vegas, the other 2 showed files have supported codecs, look

met vriendelijke groet
Marten

Camera : Pan X900, GoPro Hero7 Hero Black, Samsung Galaxy A8
Desktop :MB Gigabyte Z390M, W10 home version 1909 build 18363.720, i7 9700 4.7Ghz,16 DDR4 GB RAM, Gef. GTX 1660 Ti.
Laptop  :Asus ROG GL753VD, W10 home version 1909 build 18363.720, CPU i7 7700HQ, 8 GB RAM, GeF. GTX 1050 (2 GB) + Int. HD Graphics 630(2GB).VP 16,17 and VMS PL 16,17 are installed, all latest builds
Both Nvidia GPU's have driver version 442.92 Studio Driver, desktop the Studio DHC driver
TV      :LG 4K 55EG960V

Dutch video tutorials for beginners

My slogan is: BE OR BECOME A STEMCELL DONOR !!!

Musicvid wrote on 4/5/2020, 7:55 AM

Have you enabled QuickTime codec in Deprecated Features. It does support the older MOV/MJPEG format -- don't know about yours.

You may need to transcode everything in Handbrake -- these are not mainstream formats.

Nanozombi wrote on 4/5/2020, 8:07 AM

Dear j-v

Looks like my problem is only with the 3rd point, the codec used is not supported as far as I see, because the results are the same as it happens to you, the file with the MJPEG format does not open. The other 2 files open correctly.

Dear Musicvid,

Yes, QuickTime codec is enabled, but it does not work. Transcoding is an option, but very time-consuming. Usually I record children basketball games on Saturday morning, and in the afternoon all the other mf parents are already asking for the edited video 😂

If I have to wait until Handbrake transcodes them before starting editing, then I would not finish in time...

Thanks a lot for your help!

j-v wrote on 4/5/2020, 8:23 AM

Have you enabled QuickTime codec in Deprecated Features.

Not needed for the files of @Nanozombi

met vriendelijke groet
Marten

Camera : Pan X900, GoPro Hero7 Hero Black, Samsung Galaxy A8
Desktop :MB Gigabyte Z390M, W10 home version 1909 build 18363.720, i7 9700 4.7Ghz,16 DDR4 GB RAM, Gef. GTX 1660 Ti.
Laptop  :Asus ROG GL753VD, W10 home version 1909 build 18363.720, CPU i7 7700HQ, 8 GB RAM, GeF. GTX 1050 (2 GB) + Int. HD Graphics 630(2GB).VP 16,17 and VMS PL 16,17 are installed, all latest builds
Both Nvidia GPU's have driver version 442.92 Studio Driver, desktop the Studio DHC driver
TV      :LG 4K 55EG960V

Dutch video tutorials for beginners

My slogan is: BE OR BECOME A STEMCELL DONOR !!!