Movie Studio Platinum 16 - render with source settings

Dienst-ICT wrote on 6/12/2019, 7:28 AM

Hi,

I want to achieve something very simple. I have two MP4 clips of about 11 MB each. All I want to do is join them (with a cross fade) and then render the result. I want this result to use identical settings as the source material. Taking the two source clips into account, I expect the outcome to be roughly 22 MB in size. When using the option to set the project settings to the source material, the resulting clip is 116 MB however.

Is there a setting that the result is rendered with identical settings as the source, producing a result with similar quality and size?

I am using Movie Studio Platinum 16 on W10 64 bit

Comments

Musicvid wrote on 6/12/2019, 5:22 PM

Vegas is an encoder, not a muxer (spelling is correct).

Long-GOP source is a bear to mux properly, not concatenate.

I use VideoRedo TV Suite, a paid solution with a free trial. Another user recently mentioned a freeware product that may or may not work for you. It is called mp4joiner. Unfortunately, I know nothing about it.

EricLNZ wrote on 6/12/2019, 6:50 PM

@Dienst-ICT Probably your rendered file has a higher bitrate than your source.

We need details of your source file (https://www.vegascreativesoftware.info/us/forum/faq-how-to-post-mediainfo-and-vegas-pro-file-properties--104561/)

And how exactly did you select "the option to set the project settings to the source material"?

Dienst-ICT wrote on 6/17/2019, 5:05 AM

@Musicvid I encountered this issue when joining, but it could have been after editing just as well. The rendered video is much larger than the source material would suggest or justify.

@EricLNZ
I'll post the details of the source file below. As far as 'project settings based on the source material' is concerned: I remember vividly seeing a checkbox for this, but I can't retrace my steps. Basically that is the essence of my question: what is the easiest way to render with identical settings/properties as the source, preferably without manually setting all kinds of parameters

General
Complete name                            : xyz.mp4
Format                                   : MPEG-4
Format profile                           : Base Media / Version 2
Codec ID                                 : mp42 (mp42/mp41)
File size                                : 11.6 MiB
Duration                                 : 1 min 0 s
Overall bit rate                         : 1 623 kb/s
Encoded date                             : UTC 2018-11-01 11:46:13
Tagged date                              : UTC 2018-11-01 11:46:14
TIM                                      : 00:00:00:00
TSC                                      : 25
TSZ                                      : 1

Video
ID                                       : 1
Format                                   : AVC
Format/Info                              : Advanced Video Codec
Format profile                           : Main@L4.1
Format settings                          : CABAC / 4 Ref Frames
Format settings, CABAC                   : Yes
Format settings, Reference frames        : 4 frames
Codec ID                                 : avc1
Codec ID/Info                            : Advanced Video Coding
Duration                                 : 1 min 0 s
Bit rate                                 : 1 488 kb/s
Width                                    : 1 280 pixels
Height                                   : 720 pixels
Display aspect ratio                     : 16:9
Frame rate mode                          : Constant
Frame rate                               : 25.000 FPS
Color space                              : YUV
Chroma subsampling                       : 4:2:0
Bit depth                                : 8 bits
Scan type                                : Progressive
Bits/(Pixel*Frame)                       : 0.065
Stream size                              : 10.6 MiB (92%)
Language                                 : English
Encoded date                             : UTC 2018-11-01 11:46:13
Tagged date                              : UTC 2018-11-01 11:46:13
Color range                              : Limited
Color primaries                          : BT.709
Transfer characteristics                 : BT.709
Matrix coefficients                      : BT.709
Codec configuration box                  : avcC

Audio
ID                                       : 2
Format                                   : AAC LC
Format/Info                              : Advanced Audio Codec Low Complexity
Codec ID                                 : mp4a-40-2
Duration                                 : 1 min 0 s
Source duration                          : 1 min 0 s
Bit rate mode                            : Constant
Bit rate                                 : 126 kb/s
Channel(s)                               : 2 channels
Channel layout                           : L R
Sampling rate                            : 44.1 kHz
Frame rate                               : 43.066 FPS (1024 SPF)
Compression mode                         : Lossy
Stream size                              : 920 KiB (8%)
Source stream size                       : 921 KiB (8%)
Language                                 : English
Encoded date                             : UTC 2018-11-01 11:46:13
Tagged date                              : UTC 2018-11-01 11:46:13

 

 

Properties from the General tab in Movie Studio

General
  Name: xyz.mp4
  Folder: C:\temp Movie Studio
  Type: AVC
  Size: 15,13 MB (15.494.886 bytes)
  Created: woensdag 12 juni 2019, 12:33:08
  Modified: donderdag 16 augustus 2018, 15:36:04
  Accessed: woensdag 12 juni 2019, 12:33:08
  Attributes: Archive

Streams
  Video: 00:00:57,891, 23,976 fps progressive, 1280x720x32, AVC
  Audio: 00:00:57,833, 48.000 Hz; Stereo, AAC

Summary
  [TCFM]: 18

ACID information
  ACID chunk: no
  Stretch chunk: no
  Stretch list: no
  Stretch info2: no
  Beat markers: no
  Detected beats: no

Other metadata
  Regions/markers: no
  Command markers: no

Media manager
  Media tags: no

Plug-In
  Name: so4compoundplug.dll
  Folder: C:\Program Files\VEGAS\Movie Studio Platinum 16.0\FileIO Plug-Ins\so4compoundplug
  Format: AVC
  Version: Version 1.0 (Build 8532)
  Company: MAGIX Computer Products Intl. Co.

Thanks for your help

EricLNZ wrote on 6/17/2019, 5:50 AM

@Dienst-ICT Your source has a very low bitrate of 1,488 Kbps. Also there's something strange about the framerate. Media Info says 25.000fps yet MS General tab says 23.976 fps! Anyway you will need to customise an mp4 template to get a render with a similar low bitrate.

j-v wrote on 6/17/2019, 5:56 AM

@Dienst-ICT

When you don't edit something with those files, it has no sense to use Vegas like @Musicvid also did tell you.
I always use for those tasks to cut, split or join only the mp4 this free app. mp4 joiner.

met vriendelijke groet
Jan

Camera : Pan X900,GoPro Hero7 Hero Black
Desktop :AsRock Z270 Pro4, W10 , i7 7700K 4.2Ghz,16 DDR4 GB RAM, Gef. GTX 1050 Ti.
Laptop  :Asus ROG GL753VD, W10 home, version 1903 build 18.362, CPU i7 7700HQ, 16 GB RAM, GeF. GTX 1050 (2 GB) + Int. HD Graphics 630(2GB).
Both Nvidia GPU's have driver version 430.86 Studio Drivers
TV      :LG 4K 55EG960V

Dutch video tutorials for beginners

My slogan is: BE OR BECOME A STEMCELL DONOR !!!

Dienst-ICT wrote on 6/17/2019, 6:07 AM

@j-v Well, I did specify that I wanted to make a cross fade when joining the two clips, but it is good to know that there are simpler tools when no editing is necessary. Thanks

Musicvid wrote on 6/17/2019, 7:56 AM

Matching the bitrate (file size) is not a goal because you are using different encoders. Even encoding with the same encoder would give you different bit rate and file size, because it will have been encoded twice! Encoding is a lossy process, meaning it degrades with each subsequent generation. No magic to be found there.

Using a muxer, such as VideoRedo or possibly freeware AVIDemux, will not recompress (encode) your files, but will join them, trim, cut, etc. as if to a carbon copy of the originals.

Vegas is an encoder, not a muxer. Crossfades and effects are not possible in a muxer, because those must be encoded. Getting it?

The kind of smart-rendering you are hoping for, where original source is left untouched, and only effected or generated material is encoded, is available in Vegas, but only with MPEG-2 and some AVI source. Unfortunately, AVC will not smart-render in Vegas owing to its complex GOP structure.:-)

For more beginning video vocab, see this tutorial:

https://www.vegascreativesoftware.info/us/forum/speaking-good-video-a-beginner-s-guide--104463/

Dienst-ICT wrote on 6/17/2019, 8:09 AM

@Musicvid The link at the bottom of your post is missing, but I get your point. Thanks for clarifying that.

Ah, I notice that you have added the link now. Thanks

Musicvid wrote on 6/17/2019, 8:26 AM

Oh, and do give your fellow users a chance to proofread and add links and such to their posts ;?)