VP17: Trimmer: Type "R": Region not on MAIN T/L?

Grazie wrote on 8/14/2019, 12:40 AM

User Expectation: In Trimmer make a Selection and press "R" and get a Named Region on MAIN Timeline with IN and OUT Region markers.

User Experience: In Trimmer press R results in a partial Region and unamed on MAIN Timeline:

However Press the Button for "Insert Region" and I get the correct outcome, a Named Trimmer Region.

Please confirm or deny what I get.

TIA - G

Grazie

PC 7 64-bit 16gb * Intel® Core™i7-2600k Quad Core 3.40GHz * 2GB NVIDIA GEFORCE GTX 560 Ti

PC 10 64-bit 64gb * Intel® Core™i9 - 3.3GHz * 40Gb NVIDIA  GeForce RTX 2070

Cameras: Canon XF300 + PowerShot SX60HS Bridge

Comments

Marco. wrote on 8/14/2019, 2:41 AM

It works as expected here.

Did you try a different media other than in a MOV container (just to be sure)?

Grazie wrote on 8/14/2019, 2:48 AM

It works as expected here.

Did you try a different media other than in a MOV container (just to be sure)?

@Marco. Thanks Marco. What Media did you Test it on?

Grazie

PC 7 64-bit 16gb * Intel® Core™i7-2600k Quad Core 3.40GHz * 2GB NVIDIA GEFORCE GTX 560 Ti

PC 10 64-bit 64gb * Intel® Core™i9 - 3.3GHz * 40Gb NVIDIA  GeForce RTX 2070

Cameras: Canon XF300 + PowerShot SX60HS Bridge

Marco. wrote on 8/14/2019, 2:51 AM

On a PNG grafic file, a MP4 H.264, MXF X-AVC and MTS AVCHD.

Grazie wrote on 8/14/2019, 3:08 AM

@Marco.

Why were you able to quickly jump on the MOV as being the culprit?

This works:

Format                                   : MPEG-4
Format profile                           : Base Media / Version 2
Codec ID                                 : mp42 (mp42/avc1/CAEP)
File size                                : 93.8 MiB
Duration                                 : 32 s 666 ms
Overall bit rate                         : 24.1 Mb/s
Performer                                :         
Encoded date                             : UTC 2018-11-19 14:13:25
Tagged date                              : UTC 2018-11-19 14:13:25
Copyright                                :         

Video
ID                                       : 1
Format                                   : AVC
Format/Info                              : Advanced Video Codec
Format profile                           : High@L4.1
Format settings                          : CABAC / 2 Ref Frames
Format settings, CABAC                   : Yes
Format settings, Reference frames        : 2 frames
Format settings, GOP                     : M=3, N=15
Codec ID                                 : avc1
Codec ID/Info                            : Advanced Video Coding
Duration                                 : 32 s 666 ms
Bit rate                                 : 23.9 Mb/s
Width                                    : 1 920 pixels
Height                                   : 1 080 pixels
Display aspect ratio                     : 16:9
Frame rate mode                          : Constant
Frame rate                               : 29.970 (30000/1001) FPS
Color space                              : YUV
Chroma subsampling                       : 4:2:0
Bit depth                                : 8 bits
Scan type                                : Progressive
Bits/(Pixel*Frame)                       : 0.385
Stream size                              : 93.2 MiB (99%)
Language                                 : English
Encoded date                             : UTC 2018-11-19 14:13:25
Tagged date                              : UTC 2018-11-19 14:13:25
Color range                              : Limited
Color primaries                          : BT.709
Transfer characteristics                 : BT.709
Matrix coefficients                      : BT.709
Codec configuration box                  : avcC

This does NOT work:

Format                                   : MPEG-4
Format profile                           : QuickTime
Codec ID                                 : qt   2007.09 (qt  /CAEP)
File size                                : 111 MiB
Duration                                 : 26 s 652 ms
Overall bit rate                         : 35.1 Mb/s
Encoded date                             : UTC 2015-10-24 12:15:52
Tagged date                              : UTC 2015-10-24 12:15:52
Copyright                                :         
com.apple.quicktime.make                 : Canon
com.apple.quicktime.model                : Canon PowerShot SX50 HS
com.apple.quicktime.author               : Graham Bernard

Video
ID                                       : 1
Format                                   : AVC
Format/Info                              : Advanced Video Codec
Format profile                           : Baseline@L4.1
Format settings                          : 1 Ref Frames
Format settings, CABAC                   : No
Format settings, Reference frames        : 1 frame
Format settings, GOP                     : M=1, N=12
Codec ID                                 : avc1
Codec ID/Info                            : Advanced Video Coding
Duration                                 : 26 s 652 ms
Bit rate                                 : 33.5 Mb/s
Width                                    : 1 920 pixels
Height                                   : 1 080 pixels
Display aspect ratio                     : 16:9
Frame rate mode                          : Constant
Frame rate                               : 23.976 (24000/1001) FPS
Color space                              : YUV
Chroma subsampling                       : 4:2:0
Bit depth                                : 8 bits
Scan type                                : Progressive
Bits/(Pixel*Frame)                       : 0.674
Stream size                              : 106 MiB (96%)
Language                                 : English
Encoded date                             : UTC 2015-10-24 12:15:52
Tagged date                              : UTC 2015-10-24 12:15:52
Color range                              : Full
Color primaries                          : BT.709
Transfer characteristics                 : BT.709
Matrix coefficients                      : BT.709
Codec configuration box                  : avcC

 

Grazie

PC 7 64-bit 16gb * Intel® Core™i7-2600k Quad Core 3.40GHz * 2GB NVIDIA GEFORCE GTX 560 Ti

PC 10 64-bit 64gb * Intel® Core™i9 - 3.3GHz * 40Gb NVIDIA  GeForce RTX 2070

Cameras: Canon XF300 + PowerShot SX60HS Bridge

Marco. wrote on 8/14/2019, 3:36 AM

"Why were you able to quickly jump on the MOV as being the culprit?"

Because that's what your screenshot shows. It's just a guess.

Grazie wrote on 8/14/2019, 3:45 AM

Because that's what your screenshot shows. It's just a guess.

@Marco. So, after seeing MOV in my SG it was your guess, huh? What would I need to do to make MOV compliant?

Grazie

PC 7 64-bit 16gb * Intel® Core™i7-2600k Quad Core 3.40GHz * 2GB NVIDIA GEFORCE GTX 560 Ti

PC 10 64-bit 64gb * Intel® Core™i9 - 3.3GHz * 40Gb NVIDIA  GeForce RTX 2070

Cameras: Canon XF300 + PowerShot SX60HS Bridge

Marco. wrote on 8/14/2019, 3:51 AM

I don't know. I just tried a MOV file on my own now and this one works fine.

Did you enable Quicktime support in Options/Preferences/Deprecated Features?

Grazie wrote on 8/14/2019, 4:13 AM

Did you enable Quicktime support in Options/Preferences/Deprecated Features?

@Marco. Why? Had you? (We’re gradually getting there 😉)

Grazie

PC 7 64-bit 16gb * Intel® Core™i7-2600k Quad Core 3.40GHz * 2GB NVIDIA GEFORCE GTX 560 Ti

PC 10 64-bit 64gb * Intel® Core™i9 - 3.3GHz * 40Gb NVIDIA  GeForce RTX 2070

Cameras: Canon XF300 + PowerShot SX60HS Bridge

Marco. wrote on 8/14/2019, 4:15 AM

Yes, I have.

Grazie wrote on 8/14/2019, 4:16 AM

Thank you.

Grazie

PC 7 64-bit 16gb * Intel® Core™i7-2600k Quad Core 3.40GHz * 2GB NVIDIA GEFORCE GTX 560 Ti

PC 10 64-bit 64gb * Intel® Core™i9 - 3.3GHz * 40Gb NVIDIA  GeForce RTX 2070

Cameras: Canon XF300 + PowerShot SX60HS Bridge

Marco. wrote on 8/14/2019, 6:49 AM

So it is solved for you with Quicktime support enabled?

vkmast wrote on 8/14/2019, 6:54 AM

Tagged as solution (by him?).

Grazie wrote on 8/14/2019, 8:12 AM

@vkmast - By him? What am I, chopped-liver? 😉

Grazie

PC 7 64-bit 16gb * Intel® Core™i7-2600k Quad Core 3.40GHz * 2GB NVIDIA GEFORCE GTX 560 Ti

PC 10 64-bit 64gb * Intel® Core™i9 - 3.3GHz * 40Gb NVIDIA  GeForce RTX 2070

Cameras: Canon XF300 + PowerShot SX60HS Bridge

Grazie wrote on 8/14/2019, 8:14 AM

So it is solved for you with Quicktime support enabled?

@Marco. - Not unnaturally, I had to restart VP17.

Grazie

PC 7 64-bit 16gb * Intel® Core™i7-2600k Quad Core 3.40GHz * 2GB NVIDIA GEFORCE GTX 560 Ti

PC 10 64-bit 64gb * Intel® Core™i9 - 3.3GHz * 40Gb NVIDIA  GeForce RTX 2070

Cameras: Canon XF300 + PowerShot SX60HS Bridge

vkmast wrote on 8/14/2019, 9:48 AM

@Grazie Apologies to the honourable member of long standing on these forums for the unfortunate choice of the word "him" in that comment. I need to cut down on watching newsflashes of the sessions in the UK Parliament and remember to refer to you by your moniker 🙂.

Grazie wrote on 8/14/2019, 9:54 AM

@vkmast - We have a Parliament? I didn't know - seeesshh. "ORDER....ORDER...order . . . ". Actually @vkmast I could quite easily warm to "Him", gives me some sense of Omnipotence - hmmm... yeah, carry on VK!

Grazie

PC 7 64-bit 16gb * Intel® Core™i7-2600k Quad Core 3.40GHz * 2GB NVIDIA GEFORCE GTX 560 Ti

PC 10 64-bit 64gb * Intel® Core™i9 - 3.3GHz * 40Gb NVIDIA  GeForce RTX 2070

Cameras: Canon XF300 + PowerShot SX60HS Bridge